Возврат из похода в Припять [2013 г., Документальный, Любительское видео]

 

Создавать темы 11-Апр-2014 18:17

Возврат из похода в Припять
Год выпуска: 2013
Страна: Россия
Жанр: Документальный, Любительское видео
Продолжительность: 44:29
Описание: Возврат из похода в Припять Украина Андрея из Петербурга. 2013. 9 часть.

MI

Формат : MPEG-4
Профиль формата : Base Media
Идентификатор кодека : isom
Размер файла : 801 Мбайт
Продолжительность : 44 м.
Общий поток : 2518 Кбит/сек
Программа кодирования : Lavf55.12.100
Видео
Идентификатор : 2
Формат : AVC
Формат/Информация : Advanced Video Codec
Профиль формата : [email protected]
Параметр CABAC формата : Да
Параметр ReFrames формата : 1 кадр
Параметр GOP формата : M=1, N=60
Идентификатор кодека : avc1
Идентификатор кодека/Информация : Advanced Video Coding
Продолжительность : 44 м.
Битрейт : 2319 Кбит/сек
Ширина : 1280 пикселей
Высота : 720 пикселей
Соотношение сторон : 16:9
Режим частоты кадров : Постоянный
Частота кадров : 30,000 кадров/сек
Цветовое пространство : YUV
Субдискретизация насыщенности : 4:2:0
Битовая глубина : 8 бит
Тип развёртки : Прогрессивная
Бит/(Пиксели*Кадры) : 0.084
Размер потока : 738 Мбайт (92%)
Аудио
Идентификатор : 1
Формат : AAC
Формат/Информация : Advanced Audio Codec
Профиль формата : LC
Идентификатор кодека : 40
Продолжительность : 44 м.
Вид битрейта : Постоянный
Битрейт : 192 Кбит/сек
Каналы : 2 канала
Расположение каналов : Front: L R
Частота : 44,1 КГц
Метод сжатия : С потерями
Размер потока : 61,1 Мбайт (8%)

Скриншоты

Яндекс.Метрика
Рейтинг@Mail.ru