Дом с лилиями ( Владимир Краснопольский, Валерий Усков)(2014,Драма, Семейный) SATRip [H.264] (серии 1-24 из 24)

 

Создавать темы 11-Апр-2014 14:54

-Дом с лилиями (2014) SATRip [H.264] (серии 1-24 из 24) - Год выпуска: 2014
Жанр: Драма, Семейный

Режиссер: Владимир Краснопольский, Валерий Усков
Актеры: Сергей Маховиков, Дарья Мороз, Николай Добрынин, Олеся Судзиловская, Евгений Князев, Виктор Раков, Борис Химичев, Сергей Баталов, Михаил Жигалов, Анна Горшкова, Денис Матросов, Михаил Пшеничный, Олеся Жураковская, Валентина Лукащук, Алексей Фатеев, Елена Радевич, Андрей Франчук, Елена Турбал, Дария Боцманова, Василий Киба, Сергей Никитин (V), Виктория Билан, Михаил Романов (II), Мария Довгань, Диана Довгань
Описание фильма:
"Дом с лилиями" – семейная сага о судьбе героя-фронтовика Михаила Говорова, его любимых женщинах и детях, предоставляющая зрителю возможность проследить судьбу нескольких поколений советских и постсоветских людей, начиная с середины ХХ века до наших дней.
После окончания Великой Отечественной войны герой-фронтовик коммунист Михаил Говоров занимает высокую партийную должность в одном из областных центров и со всей семьей переезжает в загородный дом. На первых порах ни сам Говоров, ни члены его семье не обращают особого внимания на легенды, которыми окутано их новое место жительства. По преданию, на дом наложено проклятие, и ни его владельцы, ни их дети и внуки не будут счастливы в любви...
Продолжительность: 00:50:00
Качество видео: SATRip-AVC
Сэмпл: Скачать
Видеокодек: H.264
Битрейт видео: ~1 753 Kbps
Размер кадра: 853 x 480
Аудиокодек: AC3,2 ch
Битрейт аудио: 320kbps

Медиаинфо

Общее
Уникальный идентификатор : 168348648403719580577546155723716462494 (0x7EA6C532C2870C1E037BA147C20E879E)
Полное имя : D:\Дом с лилиями-AVC
Формат : Matroska
Версия формата : Version 2
Размер файла : 772 Мбайт
Продолжительность : 51 м.
Общий поток : 2115 Кбит/сек
Программа кодирования : Lavf51.12.1
Библиотека кодирования : Lavf51.12.1
Видео
Идентификатор : 1
Формат : AVC
Формат/Информация : Advanced Video Codec
Профиль формата : [url=mailto:[email protected]][email protected][/url]
Параметр CABAC формата : Нет
Параметр ReFrames формата : 2 кадра
Параметр GOP формата : M=1, N=12
Идентификатор кодека : V_MPEG4/ISO/AVC
Продолжительность : 51 м.
Битрейт : 1753 Кбит/сек
Ширина : 720 пикселей
Высота : 480 пикселей
Соотношение сторон : 16:9
Соотношение сторон в оригинале : 16:9
Режим частоты кадров : Постоянный
Частота кадров : 25,000 кадров/сек
Стандарт вещания : PAL
Цветовое пространство : YUV
Субдискретизация насыщенности : 4:2:0
Битовая глубина : 8 бит
Тип развёртки : Прогрессивная
Бит/(Пиксели*Кадры) : 0.203
Размер потока : 640 Мбайт (83%)
Default : Да
Forced : Нет
Основные цвета : BT.601 PAL
Характеристики трансфера : BT.470 System B, BT.470 System G
Коэффициенты матрицы : BT.601
Аудио
Идентификатор : 2
Формат : AC-3
Формат/Информация : Audio Coding 3
Расширение режима : CM (complete main)
Параметр Endianness формата : Big
Идентификатор кодека : A_AC3
Продолжительность : 51 м.
Вид битрейта : Постоянный
Битрейт : 320 Кбит/сек
Каналы : 2 канала
Расположение каналов : Front: L R
Частота : 48,0 КГц
Битовая глубина : 16 бит
Метод сжатия : С потерями
Размер потока : 117 Мбайт (15%)
Default : Да
Forced : Нет
Скриншоты:
Яндекс.Метрика
Рейтинг@Mail.ru