Любовь, секс и химия / Better Living Through Chemistry (Джофф Мур / Geoff Moore, Дэвид Посаментир / David Posamentier) [2014 г., драма, комедия, BDRip, 720p] VO [Pashaup]

 

Создавать темы 10-Апр-2014 02:29

-Любовь, секс и химия / Better Living Through Chemistry-«Отпускается без рецепта»- Производство: США / Mission Films, Occupant Entertainment, Occupant Films
Год выпуска: 2014 г.
Жанр: драма, комедия
Продолжительность: 01:31:43
Мировая премьера: 14 марта 2014
Российская премьера: 17 июля 2014, «Наше Кино»
Перевод: Любительский (одноголосый, закадровый) [Pashaup]-Режиссер: Джофф Мур / Geoff Moore, Дэвид Посаментир / David Posamentier
В ролях: Сэм Рокуэлл, Оливия Уайлд, Мишель Монахэн, Бен Шварц, Кен Ховард, Джейн Фонда, Рэй Лиотта, Норберт Лео Батц, Дженн Харрис, Харрисон Хольцер-Описание:-Тихая жизнь фармацевта выходит из-под контроля, когда у него завязываются отношения с красивой замужней женщиной, которая втягивает его в мир полный секса и наркотиков…-Качество видео: BDRip
Контейнер: MKV
Стандарт разрешения: 720p
Видео кодек: AVC MPEG-4 (H 264)
Аудио кодек: AC3
Видео: 1280x534 (2.40:1), 6 000 Kbps, 23.976 fps, 0.366 bit/pixel
Аудио: AC3, 192 Kbps, 2 ch, 48.0 KHz
Cубтитры: отсутствуют
Дополнительно: Сохранены оригинальные чаптеры

Media Info

General
Unique ID                                : 173012747423495334521543790448678192576 (0x82290B08C1A121A4B3BF9B3EB3FAC5C0)
Complete name                            : D:\Better.Living.Through.Chemistry.2014.BDRip.720p.mkv
Format                                   : Matroska
Format version                           : Version 2
File size                                : 3.97 GiB
Duration                                 : 1h 31mn
Overall bit rate                         : 6 194 Kbps
Encoded date                             : UTC 2014-04-09 02:36:13
Writing application                      : mkvmerge v4.7.0 ('Just Like You Imagined') сборка от Apr 21 2011 01:13:14
Writing library                          : libebml v1.2.0 + libmatroska v1.1.0
Video
ID                                       : 1
Format                                   : AVC
Format/Info                              : Advanced Video Codec
Format profile                           : [email protected]
Format settings, CABAC                   : Yes
Format settings, ReFrames                : 12 frames
Codec ID                                 : V_MPEG4/ISO/AVC
Duration                                 : 1h 31mn
Bit rate                                 : 6 000 Kbps
Width                                    : 1 280 pixels
Height                                   : 534 pixels
Display aspect ratio                     : 2.40:1
Frame rate mode                          : Constant
Frame rate                               : 23.976 fps
Color space                              : YUV
Chroma subsampling                       : 4:2:0
Bit depth                                : 8 bits
Scan type                                : Progressive
Bits/(Pixel*Frame)                       : 0.366
Stream size                              : 3.77 GiB (95%)
Writing library                          : x264 core 136 r2348+704+51 d1baef6 tMod [[email protected] X86_64]
Encoding settings                        : cabac=1 / ref=12 / deblock=1:-2:-2 / analyse=0x3:0x133 / me=umh / subme=11 / psy=1 / fade_compensate=0.00 / psy_rd=1.05:0.05 / mixed_ref=1 / me_range=32 / chroma_me=1 / trellis=2 / 8x8dct=1 / cqm=0 / deadzone=21,11 / fast_pskip=0 / chroma_qp_offset=-3 / threads=12 / lookahead_threads=2 / sliced_threads=0 / nr=0 / decimate=0 / interlaced=0 / bluray_compat=0 / constrained_intra=0 / fgo=0 / bframes=8 / b_pyramid=2 / b_adapt=2 / b_bias=0 / direct=3 / weightb=1 / open_gop=0 / weightp=2 / keyint=250 / keyint_min=23 / scenecut=40 / intra_refresh=0 / rc=2pass / mbtree=0 / bitrate=6000 / ratetol=1.0 / qcomp=0.75 / qpmin=0:0:0 / qpmax=69:69:69 / qpstep=4 / cplxblur=20.0 / qblur=0.5 / ip_ratio=1.40 / pb_ratio=1.30 / aq=3:0.90 / aq-sensitivity=10.00 / aq-factor=1.00:1.00:1.00 / aq2=0 / aq3=0
Language                                 : English
Default                                  : Yes
Forced                                   : No
Matrix coefficients                      : BT.709
Audio
ID                                       : 2
Format                                   : AC-3
Format/Info                              : Audio Coding 3
Mode extension                           : CM (complete main)
Format settings, Endianness              : Big
Codec ID                                 : A_AC3
Duration                                 : 1h 31mn
Bit rate mode                            : Constant
Bit rate                                 : 192 Kbps
Channel(s)                               : 2 channels
Channel positions                        : Front: L R
Sampling rate                            : 48.0 KHz
Bit depth                                : 16 bits
Compression mode                         : Lossy
Stream size                              : 126 MiB (3%)
Title                                    : pashaup
Language                                 : Russian
Default                                  : Yes
Forced                                   : Yes
Menu
00:00:00.000                             : en:00:00:00.000
00:05:23.573                             : en:00:05:23.573
00:10:36.427                             : en:00:10:36.427
00:17:11.072                             : en:00:17:11.072
00:23:22.776                             : en:00:23:22.776
00:27:29.231                             : en:00:27:29.231
00:31:21.505                             : en:00:31:21.505
00:38:33.394                             : en:00:38:33.394
00:42:44.312                             : en:00:42:44.312
00:49:17.913                             : en:00:49:17.913
00:54:55.167                             : en:00:54:55.167
01:00:05.852                             : en:01:00:05.852
01:04:24.402                             : en:01:04:24.402
01:10:09.997                             : en:01:10:09.997
01:14:41.352                             : en:01:14:41.352
01:22:01.416                             : en:01:22:01.416

Скриншоты

Яндекс.Метрика
Рейтинг@Mail.ru