[ Сегодня на трекере фрилич! Идет свободное скачивание без начисления Download ]

Семейный уик-энд / Family Weekend (Бенжамин Еппс / Benjamin Epps) [2013 г., драма, комедия, WEB-DL] Dub

 

Создавать темы 10-Апр-2014 02:28

-Семейный уик-энд / Family Weekend-«If a family doesn't stick together, sometimes you have to use a little tape»- Производство: США / Footprint Features, Bedford Falls Company, The
Год выпуска: 2013 г.
Жанр: драма, комедия
Продолжительность: 01:45:31
Мировая премьера: 29 марта 2013
Перевод: Профессиональный (полное дублирование)-Режиссер: Бенжамин Еппс / Benjamin Epps
В ролях: Кристин Ченоуэт, Мэттью Модайн, Олеся Рулин, Джои Кинг, Эдди Хэсселл, Ширли Джонс, Хлоя Бриджес, Адам Саундерс, Робби Такер, Питер Гэйл-Описание:-Изначально о взаимопонимании и семейной гармонии в этом доме никто даже и не слышал. Еще бы, откуда же ей взяться в логове карьеристки, которая спит и думает только о собственной карьере и успехе, и художника-романтика, который далек от житейских проблем и живет в мире творчества. Несмотря на такое различие в темпераментах и образах жизни эти двое умудрились нажить детей и много лет прожить вместе, почти не замечая друг друга и не занимаясь своими чадами. Пока дети были маленькие и несмышлёные, родителям все сходило с рук. Брошенные и недолюбленные дети в прямом смысле слова были предоставлены сами себе. Теперь старшей дочери уже 16, она не ребенок и понимает, что это не нормальная семья, и все должно быть иначе. Она устала от того, что родители, живя под одной крышей, каждый находятся в своем мире, но при этом их эгоизме страдают только дети, т. е. она и ее сестры-братья. Понимая, что нужны кардинальные меры, она берет младших в союзники и устраивает предкам настоящий уик-энд с испытаниями, который должен образумить их и заставить задуматься о семье.-Качество видео: WEB-DL
Контейнер: AVI
Видео кодек: XviD
Аудио кодек: AC3
Видео: 720x304 (2.37:1), 23.976 fps, XviD build 50 ~1458 kbps avg, 0.28 bit/pixel
Аудио: 48 kHz, AC3 Dolby Digital, 3/2 (L,C,R,l,r) + LFE ch, ~384 kbps
Cубтитры: отсутствуют

Media Info

General
Complete name                            : D:\Semejnyj.yuik.end.2013.D.WEBDLRip.1400Mb.avi
Format                                   : AVI
Format/Info                              : Audio Video Interleave
File size                                : 1.36 GiB
Duration                                 : 1h 45mn
Overall bit rate                         : 1 852 Kbps
Writing application                      : VirtualDubMod 1.5.10.2 (build 2540/release)
Writing library                          : VirtualDubMod build 2540/release
Video
ID                                       : 0
Format                                   : MPEG-4 Visual
Format profile                           : Advanced [email protected]
Format settings, BVOP                    : 2
Format settings, QPel                    : No
Format settings, GMC                     : No warppoints
Format settings, Matrix                  : Default (MPEG)
Codec ID                                 : XVID
Codec ID/Hint                            : XviD
Duration                                 : 1h 45mn
Bit rate                                 : 1 459 Kbps
Width                                    : 720 pixels
Height                                   : 304 pixels
Display aspect ratio                     : 2.35:1
Frame rate                               : 23.976 fps
Color space                              : YUV
Chroma subsampling                       : 4:2:0
Bit depth                                : 8 bits
Scan type                                : Progressive
Compression mode                         : Lossy
Bits/(Pixel*Frame)                       : 0.278
Stream size                              : 1.08 GiB (79%)
Writing library                          : XviD 1.2.1 (UTC 2008-12-04)
Audio
ID                                       : 1
Format                                   : AC-3
Format/Info                              : Audio Coding 3
Mode extension                           : CM (complete main)
Format settings, Endianness              : Big
Codec ID                                 : 2000
Duration                                 : 1h 45mn
Bit rate mode                            : Constant
Bit rate                                 : 384 Kbps
Channel(s)                               : 6 channels
Channel positions                        : Front: L C R, Side: L R, LFE
Sampling rate                            : 48.0 KHz
Bit depth                                : 16 bits
Compression mode                         : Lossy
Stream size                              : 290 MiB (21%)
Alignment                                : Split accross interleaves
Interleave, duration                     : 42 ms (1.00 video frame)
Interleave, preload duration             : 500 ms

Скриншоты

Яндекс.Метрика
Рейтинг@Mail.ru