Афганский излом (Владимир Бортко) [1991 г., драма, военный, DVDRip]

 

Создавать темы 13-Окт-2013 17:28

Афганский излом Год выпуска: 1991
Страна: СССР, Италия
Жанр: драма, военный
Продолжительность: 02:12:26
Перевод: Не требуется
Режиссер: Владимир Бортко
В ролях: Микеле Плачидо, Татьяна Догилева, Михаил Жигалов, Филипп Янковский, Алексей Серебряков, Нина Русланова, Хашим Рахимов, Кием Якуб, Артур Уваров, Юрий Кузнецов...
Роли дублировали: Олег Янковский
Описание: События фильма разворачиваются накануне вывода советских войск из Афганистана. И, казалось бы, можно уже не волноваться за судьбу наших ребят, но… война продолжается.В подразделение десантников, которым командует майор Бандура, направляется сын высокопоставленного военного. Причина его прибытия накануне вывода войск понятна всем: парню необходимо успеть «поучаствовать» в боевых действиях и заработать награды…

Доп. информация:

youtube

MediaInfo

General
Complete name                    : E:\Фильмы\Военные\Афганский излом.1991.XviD.DVDRip.AVI
Format                           : AVI
Format/Info                      : Audio Video Interleave
Format profile                   : OpenDML
File size                        : 2.48 GiB
Duration                         : 2h 12mn
Overall bit rate                 : 2 677 Kbps
Video
ID                               : 0
Format                           : MPEG-4 Visual
Format settings, BVOP            : Yes
Format settings, QPel            : No
Format settings, GMC             : No warppoints
Format settings, Matrix          : Default (H.263)
Codec ID                         : DX50
Codec ID/Hint                    : DivX 5
Duration                         : 2h 12mn
Bit rate                         : 2 480 Kbps
Width                            : 720 pixels
Height                           : 544 pixels
Display aspect ratio             : 4/3
Frame rate                       : 25.000 fps
Resolution                       : 24 bits
Colorimetry                      : 4:2:0
Scan type                        : Progressive
Bits/(Pixel*Frame)               : 0.253
Stream size                      : 2.29 GiB (93%)
Writing library                  : DivX 6.8.5
Audio
ID                               : 1
Format                           : AC-3
Format/Info                      : Audio Coding 3
Codec ID                         : 2000
Duration                         : 2h 12mn
Bit rate mode                    : Constant
Bit rate                         : 192 Kbps
Channel(s)                       : 2 channels
Channel positions                : L R
Sampling rate                    : 48.0 KHz
Stream size                      : 182 MiB (7%)
Alignment                        : Split accross interleaves
Interleave, duration             : 1000 ms (25.00 video frames)
Качество: DVDRip
Формат: AVI
Видео кодек: DivX
Аудио кодек: AC3
Видео: 720x544, 25fps DivX5, ,2 480 Kbps
Аудио: 48000Hz stereo,Dolby AC3, 192kbps

Скриншоты

Яндекс.Метрика
Рейтинг@Mail.ru