Застава (Игорь Климов) (1- 12 серии из 12) [2007 г., драма, военный, DVDRip]

 

Создавать темы 13-Окт-2013 17:25

Застава...МЫ НА СВОЕЙ ЗЕМЛЕ И С НАМИ БОГ... Год выпуска: 2007
Страна: Россия
Жанр: драма, военный
Продолжительность: 12~00:43:04
Перевод: Не требуется
Режиссер: Игорь Климов
Сезон: 1
Серии: 1-12
Всего cерий: 12
В ролях: Фархад Махмудов, Рамиль Сабитов, Геннадий Венгеров, Егор Баринов, Сергей Жарков, Александр Пашков, Любовь Толкалина, Владимир Еремин, Игорь Угольников, Максим Мальцев...
Роли дублировали: Юлия Черкасова, Пётр Иващенко, Илья Хвостиков, Наталья Фищук, Александр Рыжков.
Описание: В основе сюжета - подлинные события.
На этом участке границы любое спокойствие - кажущееся. Любая тишина - временная. Здесь никогда нельзя быть уверенным, что день закончится так же благополучно, как начинался. Потому что когда-то именно здесь пролегал старый караванный путь из Азии в Россию, а в последние десятилетия наркомафия пытается проложить здесь широкий путь поставки героина.
Этот фильм о тех, кто встал на пути наркотрафика, кто, рискуя собственной жизнью, противостоит более сильному противнику. О мужестве и доблести пограничников. О тех, для кого защита рубежей родной страны стала частью жизни.
Это фильм не о суперменах. Пограничники - обычные люди, у которых есть свои слабости. Они могут совершать ошибки, и порой - роковые. Но когда судьба предлагает им сделать выбор между честью и жизнью, они, не задумываясь, выбирают первое.

Доп. информация:


Качество: DVDRip
Формат: AVI
Видео кодек: XviD
Аудио кодек: AC3
Видео: 704x400, 25fps, Xvid,1 609 Kbps
Аудио: 48000Hz stereo, Dolby AC3,192kbps

MediaInfo

General
Complete name                    : E:\Фильмы\Военные\Застава\Застава.01.DVDRip-SVAT.avi
Format                           : AVI
Format/Info                      : Audio Video Interleave
File size                        : 558 MiB
Duration                         : 43mn 4s
Overall bit rate                 : 1 810 Kbps
Writing application              : VirtualDubMod 1.5.10.3 | www.virtualdub-fr.org || (build 2550/release)
Writing library                  : VirtualDubMod build 2550/release
Video
ID                               : 0
Format                           : MPEG-4 Visual
Format profile                   : Streaming [email protected]
Format settings, BVOP            : Yes
Format settings, QPel            : No
Format settings, GMC             : No warppoints
Format settings, Matrix          : Custom
Codec ID                         : XVID
Codec ID/Hint                    : XviD
Duration                         : 43mn 4s
Bit rate                         : 1 609 Kbps
Width                            : 704 pixels
Height                           : 400 pixels
Display aspect ratio             : 16/9
Frame rate                       : 25.000 fps
Resolution                       : 24 bits
Colorimetry                      : 4:2:0
Scan type                        : Progressive
Bits/(Pixel*Frame)               : 0.228
Stream size                      : 496 MiB (89%)
Writing library                  : XviD 65
Audio
ID                               : 1
Format                           : AC-3
Format/Info                      : Audio Coding 3
Codec ID                         : 2000
Duration                         : 43mn 4s
Bit rate mode                    : Constant
Bit rate                         : 192 Kbps
Channel(s)                       : 2 channels
Channel positions                : L R
Sampling rate                    : 48.0 KHz
Stream size                      : 59.2 MiB (11%)
Alignment                        : Split accross interleaves
Interleave, duration             : 40 ms (1.00 video frame)
Interleave, preload duration     : 500 ms

Скриншоты

Яндекс.Метрика
Рейтинг@Mail.ru