[ Сегодня на трекере фрилич! Идет свободное скачивание без начисления Download ]

Холостячки в Вегасе / Best Night Ever (Джейсон Фридберг / Jason Friedberg, Аарон Зельцер / Aaron Seltzer) [2013 г., комедия, DVDRip] MVO [Лицензия]

 

Создавать темы 09-Апр-2014 02:36

-Холостячки в Вегасе / Best Night Ever-«Похмелье – это еще "цветочки"»- Производство: США
Год выпуска: 2013 г.
Жанр: комедия
Продолжительность: 01:18:56
Мировая премьера: 26 декабря 2013
Российская премьера: 16 января 2014, «Top Film Distribution»
Дата выхода DVD: 25 марта 2014, «Lizard Cinema Trade»
Перевод: Профессиональный (многоголосый, закадровый) [Лицензия]-Режиссер: Джейсон Фридберг / Jason Friedberg, Аарон Зельцер / Aaron Seltzer
В ролях: Дезри Холл, Саманта Колберн, Эдвина Ричард, Криста Флэнеган, Кристиан Барильяс, Джейсон Бобьен, Гайл Бранко, Хантер Драго, Мэтт Драго, Энди Фавро-Описание:-Перед тем как выйти замуж, молодая красотка отправляется с тремя лучшими подружками на свою последнюю холостяцкую вечеринку в Лас-Вегас. Все, что ни случается, к лучшему — гласит народная мудрость. Неужели это так, даже если все сумасшествие, происходящее в Лас-Вегасе, будет записано на видео?..-Качество видео: DVDRip
Контейнер: AVI
Видео кодек: XviD
Аудио кодек: AC3
Видео: 720x384 (1.88:1), 25 fps, XviD build 50 ~2031 kbps avg, 0.29 bit/pixel
Аудио: 48 kHz, AC3 Dolby Digital, 3/2 (L,C,R,l,r) + LFE ch, ~448 kbps
Cубтитры: отсутствуют

Media Info

General
Complete name                            : D:\Best.Night.Ever.2013.P.DVDRip.1400Mb.avi
Format                                   : AVI
Format/Info                              : Audio Video Interleave
File size                                : 1.37 GiB
Duration                                 : 1h 18mn
Overall bit rate                         : 2 489 Kbps
Writing application                      : VirtualDubMod 1.5.10.3 | www.virtualdub-fr.org || (build 2550/release)
Writing library                          : VirtualDubMod build 2550/release
Video
ID                                       : 0
Format                                   : MPEG-4 Visual
Format profile                           : Advanced [email protected]
Format settings, BVOP                    : 2
Format settings, QPel                    : No
Format settings, GMC                     : No warppoints
Format settings, Matrix                  : Custom
Codec ID                                 : XVID
Codec ID/Hint                            : XviD
Duration                                 : 1h 18mn
Bit rate                                 : 2 032 Kbps
Width                                    : 720 pixels
Height                                   : 384 pixels
Display aspect ratio                     : 1.85:1
Frame rate                               : 25.000 fps
Color space                              : YUV
Chroma subsampling                       : 4:2:0
Bit depth                                : 8 bits
Scan type                                : Progressive
Compression mode                         : Lossy
Bits/(Pixel*Frame)                       : 0.294
Stream size                              : 1.12 GiB (82%)
Writing library                          : XviD 1.2.1 (UTC 2008-12-04)
Audio
ID                                       : 1
Format                                   : AC-3
Format/Info                              : Audio Coding 3
Mode extension                           : CM (complete main)
Format settings, Endianness              : Big
Codec ID                                 : 2000
Duration                                 : 1h 18mn
Bit rate mode                            : Constant
Bit rate                                 : 448 Kbps
Channel(s)                               : 6 channels
Channel positions                        : Front: L C R, Side: L R, LFE
Sampling rate                            : 48.0 KHz
Bit depth                                : 16 bits
Compression mode                         : Lossy
Stream size                              : 252 MiB (18%)
Alignment                                : Split accross interleaves
Interleave, duration                     : 40 ms (1.00 video frame)
Interleave, preload duration             : 500 ms

Скриншоты

Яндекс.Метрика
Рейтинг@Mail.ru