Хва-Йи / Hwayi: Gwimuleul Samkin ahy (Чжун-Хван Чан) [2013, боевик, триллер, HDRip][Green Tea]

 

Создавать темы 08-Апр-2014 20:26

Хва-Йи / Hwayi: Gwimuleul Samkin ahy -Год выпуска: 2013
Страна: Корея Южная
Жанр: боевик, триллер
Продолжительность: 02:05:26
Перевод: Любительское (двухголосое) [Green Tea]
Субтитры: Нет-В ролях: Юн Сок Ким, Чжин Гу Ё, Чжин Ун Чо, Хён Сон Чон, Чжи Ын Лим, Чжи Хён Нам-Режиссёр: Чжун-Хван Чан- -В 1998 году группа преступников похищает маленького мальчика, чтобы получить за него выкуп. Платить бандитам никто не стал, но несмотря на это они сохранили мальчишке жизнь и оставили его у себя. С этого момента преступники воспитывали его, как собственного ребенка, приучая к жестокой реальности. Помимо школьного образования он также приобрел навыки владения оружием и обучился рукопашному бою. Когда он стал подростком, преступники решили ввести его в дело, поскольку заметили за ним задатки хладнокровного убийцы. По мере того, как он становился на ноги, парень все больше задумывался о своем прошлом, о котором узнать ему мешали его названные отцы. Однажды они заставили его убить человека, что привело к целой серии жестоких убийств...- -Качество: HDRip
Формат: AVI
Видео кодек: XviD
Аудио кодек: АС3
Видео: XviD, 720x304, 1464 Кбит/сек, 23.976 кадр/сек
Аудио 1: АС3, 192 Кбит/сек, 2 канала(ов), 48,0 КГц
-

MediaInfo

General
Complete name                  : C:\Users\Електростаил\Desktop\Hwayi Gwimuleul Samkin ahy.2013.HDRip.avi
Format                         : AVI
Format/Info                    : Audio Video Interleave
File size                      : 1.46 GiB
Duration                       : 2h 5mn
Overall bit rate               : 1 666 Kbps
Video
ID                             : 0
Format                         : MPEG-4 Visual
Format profile                 : Advanced [email protected]
Format settings, BVOP          : Yes
Format settings, QPel          : No
Format settings, GMC           : No warppoints
Format settings, Matrix        : Default (MPEG)
Codec ID                       : XVID
Codec ID/Hint                  : XviD
Duration                       : 2h 5mn
Bit rate                       : 1 464 Kbps
Width                          : 720 pixels
Height                         : 304 pixels
Display aspect ratio           : 2.35:1
Frame rate                     : 23.976 fps
Color space                    : YUV
Chroma subsampling             : 4:2:0
Bit depth                      : 8 bits
Scan type                      : Progressive
Compression mode               : Lossy
Bits/(Pixel*Frame)             : 0.279
Stream size                    : 1.28 GiB (88%)
Writing library                : XviD 64
Audio
ID                             : 1
Format                         : AC-3
Format/Info                    : Audio Coding 3
Mode extension                 : CM (complete main)
Format settings, Endianness    : Big
Codec ID                       : 2000
Duration                       : 2h 5mn
Source duration                : 2h 5mn
Bit rate mode                  : Constant
Bit rate                       : 192 Kbps
Channel(s)                     : 2 channels
Channel positions              : Front: L R
Sampling rate                  : 48.0 KHz
Bit depth                      : 16 bits
Compression mode               : Lossy
Stream size                    : 172 MiB (12%)
Alignment                      : Aligned on interleaves
Interleave, duration           : 42 ms (1.00 video frame)

Скриншоты:

Яндекс.Метрика
Рейтинг@Mail.ru