Мизерере / La marque des anges - Miserere (Сильвен Уайт) [2013, триллер, BDRip 1080p][Лицензия]

 

Создавать темы 08-Апр-2014 20:21

Мизерере / La marque des anges - Miserere -Год выпуска: 2013
Страна: Франция, Бельгия
Жанр: триллер
Продолжительность: 01:45:51
Перевод: Профессиональный (многоголосый) [Лицензия]
Субтитры: Русские, Англиские-В ролях: Жерар Депардье, Джои Старр, Рюдигер Фоглер, Элена Ногуэрра, Марта Келлер, Тьерри Лермитт, Кевин Меффр, Иван Франек, Жерар Шеллу-Режиссёр: Сильвен Уайт- -В армянском соборе Святого Иоанна Крестителя в Париже убит чилийский беженец Вильгельм Гетц, регент хора мальчиков и органист. Касдан, офицер полиции в отставке и прихожанин собора, немедленно начинает собственное неофициальное расследование. К нему присоединяется Фрэнк Салек из отдела по защите прав несовершеннолетних. Оказывается, в прошлом исчезло несколько мальчиков из хоров, которыми руководил Гетц. За первым преступлением следуют еще более кровавые убийства. Между полным опасностей расследованием, в которое пускаются герои, и старинным хоралом «Мизерере» существует таинственная связь…-Качество: BDRip 1080p
Формат: MKV
Видео кодек: AVC
Аудио кодек: AC3,DTS
Видео: AVC, 1920x808, 8830 Кбит/сек, 23.976 кадр/сек
Аудио 1: АС3, 448 Кбит/сек, 6 канала(ов), 48,0 КГц (Russian)
Аудио 2: DTS, 1509 Кбит/сек, 6 канала(ов), 48,0 КГц (French)
-

MediaInfo

copyText_writeLink('this.parentNode.parentNode.nextSibling.nextSibling');        General
Unique ID                      : 203371713097293466215246007712411184322 (0x98FFF79B0B61CF809ECB976E47826CC2)
Complete name                  : C:\Users\Електростаил\Desktop\Mizerere.2013.BDRip.1080p.mkv
Format                         : Matroska
Format version                 : Version 4 / Version 2
File size                      : 7.97 GiB
Duration                       : 1h 45mn
Overall bit rate               : 10.8 Mbps
Movie name                     : Release Group CINEMANIA
Encoded date                   : UTC 2014-04-07 08:16:09
Writing application            : mkvmerge v6.1.0 ('Old Devil') built on Mar  4 2013 09:10:42
Writing library                : libebml v1.3.0 + libmatroska v1.4.0
Video
ID                             : 1
Format                         : AVC
Format/Info                    : Advanced Video Codec
Format profile                 : [url=mailto:[email protected]][email protected][/url]
Format settings, CABAC         : Yes
Format settings, ReFrames      : 5 frames
Codec ID                       : V_MPEG4/ISO/AVC
Duration                       : 1h 45mn
Bit rate                       : 8 830 Kbps
Width                          : 1 920 pixels
Height                         : 808 pixels
Display aspect ratio           : 2.40:1
Frame rate mode                : Constant
Frame rate                     : 23.976 fps
Color space                    : YUV
Chroma subsampling             : 4:2:0
Bit depth                      : 8 bits
Scan type                      : Progressive
Bits/(Pixel*Frame)             : 0.237
Stream size                    : 6.37 GiB (80%)
Writing library                : x264 core 140 r2377 1ca7bb9
Encoding settings              : cabac=1 / ref=5 / deblock=1:0:0 / analyse=0x3:0x133 / me=umh / subme=8 / psy=1 / psy_rd=1.00:0.00 / mixed_ref=1 / me_range=16 / chroma_me=1 / trellis=1 / 8x8dct=1 / cqm=0 / deadzone=21,11 / fast_pskip=0 / chroma_qp_offset=-2 / threads=24 / lookahead_threads=4 / sliced_threads=0 / nr=0 / decimate=1 / interlaced=0 / bluray_compat=0 / constrained_intra=0 / bframes=3 / b_pyramid=2 / b_adapt=1 / b_bias=0 / direct=1 / weightb=1 / open_gop=0 / weightp=2 / keyint=250 / keyint_min=23 / scenecut=40 / intra_refresh=0 / rc=2pass / mbtree=0 / bitrate=8830 / ratetol=1.0 / qcomp=0.60 / qpmin=0 / qpmax=69 / qpstep=4 / cplxblur=20.0 / qblur=0.5 / ip_ratio=1.40 / pb_ratio=1.30 / aq=1:1.00
Language                       : English
Default                        : Yes
Forced                         : Yes
Audio #1
ID                             : 2
Format                         : AC-3
Format/Info                    : Audio Coding 3
Mode extension                 : CM (complete main)
Format settings, Endianness    : Big
Codec ID                       : A_AC3
Duration                       : 1h 45mn
Bit rate mode                  : Constant
Bit rate                       : 448 Kbps
Channel(s)                     : 6 channels
Channel positions              : Front: L C R, Side: L R, LFE
Sampling rate                  : 48.0 KHz
Bit depth                      : 16 bits
Compression mode               : Lossy
Stream size                    : 339 MiB (4%)
Title                          : Лицензия
Language                       : Russian
Default                        : Yes
Forced                         : Yes
Audio #2
ID                             : 3
Format                         : DTS
Format/Info                    : Digital Theater Systems
Mode                           : 16
Format settings, Endianness    : Big
Codec ID                       : A_DTS
Duration                       : 1h 45mn
Bit rate mode                  : Constant
Bit rate                       : 1 509 Kbps
Channel(s)                     : 6 channels
Channel positions              : Front: L C R, Side: L R, LFE
Sampling rate                  : 48.0 KHz
Bit depth                      : 24 bits
Compression mode               : Lossy
Stream size                    : 1.12 GiB (14%)
Language                       : French
Default                        : No
Forced                         : No
Text #1
ID                             : 4
Format                         : UTF-8
Codec ID                       : S_TEXT/UTF8
Codec ID/Info                  : UTF-8 Plain Text
Title                          : kon2011
Language                       : Russian
Default                        : No
Forced                         : No
Text #2
ID                             : 5
Format                         : UTF-8
Codec ID                       : S_TEXT/UTF8
Codec ID/Info                  : UTF-8 Plain Text
Language                       : English
Default                        : No
Forced                         : No
Menu
00:00:00.000                   : en:00:00:00.000
00:10:45.937                   : en:00:10:45.937
00:20:18.426                   : en:00:20:18.426
00:31:43.902                   : en:00:31:43.902
00:42:48.191                   : en:00:42:48.191
00:54:34.313                   : en:00:54:34.313
01:04:00.503                   : en:01:04:00.503
01:14:02.021                   : en:01:14:02.021
01:23:35.552                   : en:01:23:35.552
01:31:06.628                   : en:01:31:06.628
01:41:35.131                   : en:01:41:35.131

Скриншоты:

Яндекс.Метрика
Рейтинг@Mail.ru