Эксперимент / Das Experiment (Оливер Хиршбигель / Oliver Hirschbiegel) [2001 г., триллер, драма, BDRip] MVO + Original (Ger)

 

Создавать темы 08-Апр-2014 15:50

-Эксперимент / Das Experiment-- Производство: Германия, Senator Film
Год выпуска: 2001 г.
Жанр: триллер, драма
Продолжительность: 1:58:46
Мировая премьера: 7 марта 2001
Российская премьера: 3 января 2002, «Централ Партнершип»
Дата выхода DVD: 12 февраля 2004, «CP-Digital»
Перевод: Профессиональный (многоголосый, закадровый) [CP Digital]
Оригинальный аудиопоток: немецкий
Режиссер: Оливер Хиршбигель / Oliver Hirschbiegel-В ролях: Мориц Бл[я]йбтрой / Moritz Bleibtreu /, Кристиан Беркель, Оливер Стоковски, Юстус фон Донаньи, Тимо Диркес, Андреа Завацки, Марен Эггерт, Эдгар Зельге, Вотан Вильке Мёринг, Стефан Сцац-Описание: В ходе научного эксперимента 12 обыкновенных людей добровольно становятся на две недели "заключёнными" тюрьмы, в то время как 8 таких же добровольцев становятся надзирателями. Задача первых - соблюдать правила тюремного режима; задача вторых - поддерживать порядок. Но человеческая природа берёт своё и эксперимент выходит из-под контроля: под бесстрастными взглядами учёных надзиратели упиваются властью, унижая заключённых, и в тюрьме назревает бунт…-
Качество видео: BDRip
Контейнер: AVI
Видео кодек: XviD
Аудио кодек: AC3
Видео: 720х384 (1.85:1), XviD MPEG-4 1845 kbps, 24 fps, 0.278 bit/pixel
Аудио: Russian: AC3 Dolby Digital 384 kbps, 3/2 (L,C,R,l,r) + LFE ch, 48 kHz
Аудио #2: Deutsch: AC3 Dolby Digital 384 kbps, 3/2 (L,C,R,l,r) + LFE ch, 48 kHz
Cубтитры: отсутствуют
Возраст: 18+

Доп. информация

Фильм отражает многие реальные события Стенфордского тюремного эксперимента — психологический эксперимент, который был проведён в 1971 году американским психологом Филиппом Зимбардо. Эксперимент представляет собой психологическое исследование реакции человека на ограничение свободы, на условия тюремной жизни и на влияние навязанной социальной роли на поведение.
Добровольцы играли роли охранников и заключенных и жили в условной тюрьме, устроенной в подвале факультета психологии. Заключённые и охранники быстро приспособились к своим ролям, и, вопреки ожиданиям, стали возникать по-настоящему опасные ситуации. В каждом третьем охраннике обнаружились садистские наклонности, а заключённые были сильно морально травмированы, и двое раньше времени были исключены из эксперимента. Эксперимент был закончен раньше времени.

Награды

Европейская киноакадемия, 2001 год:
- Лучший фильм
- Приз зрительских симпатий за лучшую мужскую роль (Мориц Бл[я]йбтрой)
- Приз зрительских симпатий за лучшую работу режиссера (Оливер Хиршбигель)

Media Info

Общее
Полное имя : Эксперимент (2001) [BDRip].avi
Формат : AVI
Формат/Информация : Audio Video Interleave
Профиль формата : OpenDML
Размер файла : 2,18 Гбайт
Продолжительность : 1 ч. 58 м.
Общий поток : 2631 Кбит/сек
Программа кодирования : VirtualDubModRus 1.5.10.2 (build 2542/release)
Примечание : 27.08.2009
Видео
Идентификатор : 0
Формат : MPEG-4 Visual
Профиль формата : Advanced [email protected]
Параметр BVOP формата : 2
Параметр QPel формата : Нет
Параметр GMC формата : Без точки перехода
Параметр матрицы формата : Default (MPEG)
Режим смешивания : Сжатый битовый поток
Идентификатор кодека : XVID
Идентификатор кодека/Подсказка : XviD
Продолжительность : 1 ч. 58 м.
Битрейт : 1845 Кбит/сек
Ширина : 720 пикселей
Высота : 384 пикселя
Соотношение сторон : 1,85:1
Соотношение сторон в оригинале : 1,85:1
Частота кадров : 24,000 кадра/сек
Цветовое пространство : YUV
Субдискретизация насыщенности : 4:2:0
Битовая глубина : 8 бит
Тип развёртки : Прогрессивная
Метод сжатия : С потерями
Бит/(Пиксели*Кадры) : 0.278
Размер потока : 1,53 Гбайт (70%)
Библиотека кодирования : XviD 1.2.1 (UTC 2008-12-04)
Аудио #1
Идентификатор : 1
Формат : AC-3
Формат/Информация : Audio Coding 3
Расширение режима : CM (complete main)
Параметр Endianness формата : Big
Идентификатор кодека : 2000
Продолжительность : 1 ч. 58 м.
Вид битрейта : Постоянный
Битрейт : 384 Кбит/сек
Каналы : 6 каналов
Расположение каналов : Front: L C R, Side: L R, LFE
Частота : 48,0 КГц
Битовая глубина : 16 бит
Метод сжатия : С потерями
Задержка видео : 100 мс.
Размер потока : 326 Мбайт (15%)
Выравнивание : Разделение по промежуткам
Продолжительность промежутка : 42 мс. (1,00 видеокадр)
Время предзагрузки промежутка : 500 мс.
Аудио #2
Идентификатор : 2
Формат : AC-3
Формат/Информация : Audio Coding 3
Расширение режима : CM (complete main)
Параметр Endianness формата : Big
Идентификатор кодека : 2000
Продолжительность : 1 ч. 58 м.
Вид битрейта : Постоянный
Битрейт : 384 Кбит/сек
Каналы : 6 каналов
Расположение каналов : Front: L C R, Side: L R, LFE
Частота : 48,0 КГц
Битовая глубина : 16 бит
Метод сжатия : С потерями
Размер потока : 326 Мбайт (15%)
Выравнивание : Разделение по промежуткам
Продолжительность промежутка : 42 мс. (1,00 видеокадр)
Время предзагрузки промежутка : 500 мс.

Скриншоты

Яндекс.Метрика
Рейтинг@Mail.ru