Газовый человек / Gasu ningen dai ichigo (Иширо Хонда / Ishiro Honda) [1960 г., фантастика, драма, мелодрама, криминал, DVDRip] VO + Original (Jap)

 

Создавать темы 06-Апр-2014 17:45

-Газовый человек / Gasu ningen dai ichigo-«Is he man? Or ASTRO-MAN?»- Производство: Япония / Toho Company
Год выпуска: 1960 г.
Жанр: фантастика, драма, мелодрама, криминал
Продолжительность: 01:31:26
Мировая премьера: 11 декабря 1960
Перевод: Любительский (одноголосый, закадровый)
Оригинальный аудиопоток: японский-Режиссер: Иширо Хонда / Ishiro Honda
В ролях: Татсуя Михаши, Каору Ятигуса, Йошио Цучия, Хисая Ито-Описание: Фильм рассказывает историю Mизуно, библиотекаря из санатория, которому дали способность стать паром после того, как ученый провёл эксперимент на нем.-Качество видео: DVDRip
Контейнер: AVI
Видео кодек: XviD
Аудио кодек: AC3
Видео: 720x304 (2.37:1), 23.976 fps, XviD build 47 ~1044 kbps avg, 0.20 bit/pixel
Аудио: Русский: 48 kHz, AC3 Dolby Digital, 2/0 (L,R) ch, ~192 kbps
Аудио #2: Японский: 48 kHz, AC3 Dolby Digital, 2/0 (L,R) ch, ~192 kbps
Cубтитры: отсутствуют

Media Info

General
Complete name                            : D:\Газовый человек.avi
Format                                   : AVI
Format/Info                              : Audio Video Interleave
File size                                : 942 MiB
Duration                                 : 1h 31mn
Overall bit rate                         : 1 443 Kbps
Writing application                      : VirtualDubModRus 1.5.10.2 (build 2542/release)
Writing library                          : VirtualDubMod build 2542/release
Video
ID                                       : 0
Format                                   : MPEG-4 Visual
Format profile                           : Advanced [email protected]
Format settings, BVOP                    : 2
Format settings, QPel                    : No
Format settings, GMC                     : No warppoints
Format settings, Matrix                  : Default (H.263)
Codec ID                                 : XVID
Codec ID/Hint                            : XviD
Duration                                 : 1h 31mn
Bit rate                                 : 1 045 Kbps
Width                                    : 720 pixels
Height                                   : 304 pixels
Display aspect ratio                     : 2.35:1
Frame rate                               : 23.976 fps
Color space                              : YUV
Chroma subsampling                       : 4:2:0
Bit depth                                : 8 bits
Scan type                                : Progressive
Compression mode                         : Lossy
Bits/(Pixel*Frame)                       : 0.199
Stream size                              : 682 MiB (72%)
Writing library                          : XviD 1.2.0.dev47 (UTC 2006-11-01)
Audio #1
ID                                       : 1
Format                                   : AC-3
Format/Info                              : Audio Coding 3
Mode extension                           : CM (complete main)
Format settings, Endianness              : Big
Codec ID                                 : 2000
Duration                                 : 1h 31mn
Bit rate mode                            : Constant
Bit rate                                 : 192 Kbps
Channel(s)                               : 2 channels
Channel positions                        : Front: L R
Sampling rate                            : 48.0 KHz
Bit depth                                : 16 bits
Compression mode                         : Lossy
Stream size                              : 125 MiB (13%)
Alignment                                : Split accross interleaves
Interleave, duration                     : 42 ms (1.00 video frame)
Interleave, preload duration             : 500 ms
Audio #2
ID                                       : 2
Format                                   : AC-3
Format/Info                              : Audio Coding 3
Mode extension                           : CM (complete main)
Format settings, Endianness              : Big
Codec ID                                 : 2000
Duration                                 : 1h 31mn
Bit rate mode                            : Constant
Bit rate                                 : 192 Kbps
Channel(s)                               : 2 channels
Channel positions                        : Front: L R
Sampling rate                            : 48.0 KHz
Bit depth                                : 16 bits
Compression mode                         : Lossy
Stream size                              : 125 MiB (13%)
Alignment                                : Split accross interleaves
Interleave, duration                     : 42 ms (1.00 video frame)
Interleave, preload duration             : 500 ms

Скриншоты

Яндекс.Метрика
Рейтинг@Mail.ru