Гонка / Rush (Рон Ховард)(2013,Cпорт, драма, биография) BDRip [1080p] ATV

 

Создавать темы 06-Апр-2014 15:48

-Гонка / Rush (2013) BDRip [1080p] ATV
«Делай что должен, и будь что будет»
- Год выпуска: 2013
Страна: США, Германия, Великобритания
Жанр: Cпорт, драма, биография
Продолжительность: 02:02:20
Перевод: Авторский (одноголосый закадровый) (Сербин)
Оригинальная аудиодорожка: Есть
Cубтитры: Русские, Английские
Режиссёр: Рон Ховард
Сценарий: Питер Морган
Продюсер: Эндрю Итон, Эрик Феллнер, Брайан Грейзер
Оператор: Энтони Дод Мэнтл
Композитор: Ханс Циммер
Художник: Марк Дигби, Катрина Данн, Патрик Рольф
Монтаж: Дэниэл П. Хэнли, Майк Хилл
В ролях: Крис Хемсворт, Даниэль Брюль, Оливия Уайлд, Александра Мария Лара, Пьерфранческо Фавино, Дэвид Колдер, Натали Дормер, Стефен Мэнгэн, Кристиан МакКэй, Алистэр Петри
Бюджет: $38 000 000
Сборы в США: $26 947 624
Сборы в мире: + $63 300 000 = $90 247 624
Сборы в России: $3 679 616
Мировая премьера: 2 сентября 2013
Премьера (РФ): 17 октября 2013, «Двадцатый Век Фокс СНГ»

Описание: 70-е годы XX века. Золотое время «Формулы-1»: обтекаемые формы гоночных машин, брутальные на треке и ранимые в обычной жизни гонщики, сексуальные поклонницы, литры шампанского на финише для победителя… Два непримиримых соперника в истории гонок — обаятельный плейбой-англичанин Джеймс Хант и дисциплинированный перфекционист-австриец Ники Лауда — доводят себя до предела физической и психологической выносливости ради триумфа на трассе. Для них нет легких путей к победе и права на ошибку. Единственный промах гонщикам может стоить карьеры и даже жизни.-Качество исходника: BDRemux
Качество: BDRip
Тип: HD (1080p)
Контейнер: M4V
Видео: H.264, 1920x800, 2.40:1, 8 000 Kbps, 23.976 fps
Аудио 1: Русский/Авторский (одноголосый закадровый) (Сербин), AAC / 2.0 / 158 Kbps / 48.0 KHz
Аудио 2: Английский/Оригинальная дорожка , AAC / 2.0 / 159 Kbps / 48.0 KHz
Аудио 3: Русский/Авторский (одноголосый закадровый) (Сербин), AC-3 / 5.1 / 640 Kbps / 48.0 KHz
Аудио 4: Английский/Оригинальная дорожка , AC-3 / 5.1 / 640 Kbps / 48.0 KHz
Язык субтитров: Русский, Английский
Вид субтитров: Вшитые (полные, отключаемые)-

iTunes Meta Tags

Sort Name: Rush
XID: Apple:vendor_id:2013-596125
contentID: 700911218
Copyright: © 2013 Universal Studios. All Rights Reserved.
Screenwriters: Питер Морган
Producers: Эндрю Итон, Эрик Феллнер, Брайан Грейзер
Director: Рон Ховард
Cast: Крис Хемсворт, Даниэль Брюль, Оливия Уайлд, Александра Мария Лара, Пьерфранческо Фавино, Дэвид Колдер, Натали Дормер, Стефен Мэнгэн, Кристиан МакКэй, Алистэр Петри, Пётр Иващенко, Илья Бледный, Даниил Эльдаров, Никита Прозоровский
Studio: Universal Pictures
Rating: 5
Long Description: 70-е годы XX века. Золотое время \"Формулы-1\": обтекаемые формы гоночных машин, брутальные на треке и ранимые в обычной жизни гонщики, сексуальные поклонницы, литры шампанского на финише для победителя... Два непримиримых соперника в истории гонок - обаятельный плейбой-англичанин Джеймс Хант и дисциплинированный перфекционист-австриец Ники Лауда - доводят себя до предела физической и психологической выносливости ради триумфа на трассе. Для них нет легких путей к победе и права на ошибку. Единственный промах гонщикам может стоить карьеры и даже жизни.
Description: 70-е годы XX века. Золотое время \"Формулы-1\": обтекаемые формы гоночных машин, брутальные на треке и ранимые в обычной жизни гонщики, сексуальные поклонницы, литры шампанского на финише для победителя...
Release Date: 2013-09-02T08:00:00Z
Genre: Action & Adventure
Artist: Ron Howard
Name: Rush

MediaInfo

General
Complete name                            : /Users/imac/HandBrake/Rush (1080p HD).m4v
Format                                   : MPEG-4
Codec ID                                 : M4V
File size                                : 8.20 GiB
Duration                                 : 2h 2mn
Overall bit rate mode                    : Variable
Overall bit rate                         : 9 598 Kbps
Movie name                               : Rush
Performer                                : Ron Howard
Genre                                    : Action & Adventure
Recorded date                            : UTC 2013-09-02 08:00:00
Encoded date                             : UTC 2014-04-05 22:05:13
Tagged date                              : UTC 2014-04-06 08:02:32
Copyright                                : © 2013 Universal Studios. All Rights Reserved.
Cover                                    : Yes
sonm                                     : Rush
desc                                     : 70-е годы XX века. Золотое время \"Формулы-1\": обтекаемые формы гоночных машин, брутальные на треке и ранимые в обычной жизни гонщики, сексуальные поклонницы, литры шампанского на финише для победителя...
ldes                                     : 70-е годы XX века. Золотое время \"Формулы-1\": обтекаемые формы гоночных машин, брутальные на треке и ранимые в обычной жизни гонщики, сексуальные поклонницы, литры шампанского на финише для победителя... Два непримиримых соперника в истории гонок - обаятельный плейбой-англичанин Джеймс Хант и дисциплинированный перфекционист-австриец Ники Лауда - доводят себя до предела физической и психологической выносливости ради триумфа на трассе. Для них нет легких путей к победе и права на ошибку. Единственный промах гонщикам может стоить карьеры и даже жизни.
hdvd                                     : 2
stik                                     : 9
rtng                                     : 0
cnID                                     : 700911218
xid                                      : Apple:vendor_id:2013-596125
iTunEXTC                                 : mpaa|R|400|
iTunMOVI                                 :  /  /  /  /   cast /    /      /       name /       Крис Хемсворт /      /      /       name /       Даниэль Брюль /      /      /       name /       Оливия Уайлд /      /      /       name /       Александра Мария Лара /      /      /       name /       Пьерфранческо Фавино /      /      /       name /       Дэвид Колдер /      /      /       name /       Натали Дормер /      /      /       name /       Стефен Мэнгэн /      /      /       name /       Кристиан МакКэй /      /      /       name /       Алистэр Петри /      /      /       name /       Пётр Иващенко /      /      /       name /       Илья Бледный /      /      /       name /       Даниил Эльдаров /      /      /       name /       Никита Прозоровский /      /    /   directors /    /      /       name /       Рон Ховард /      /    /   producers /    /      /       name /       Эндрю Итон /      /      /       name /       Эрик Феллнер /      /      /       name /       Брайан Грейзер /      /    /   screenwriters /    /      /       name /       Питер Морган /      /    /   studio /   Universal Pictures /  /
Video #1
ID                                       : 1
Format                                   : AVC
Format/Info                              : Advanced Video Codec
Format profile                           : [url=mailto:[email protected]][email protected][/url]
Format settings, CABAC                   : Yes
Format settings, ReFrames                : 4 frames
Codec ID                                 : avc1
Codec ID/Info                            : Advanced Video Coding
Duration                                 : 2h 2mn
Bit rate mode                            : Variable
Bit rate                                 : 8 000 Kbps
Width                                    : 1 920 pixels
Height                                   : 800 pixels
Display aspect ratio                     : 2.40:1
Frame rate mode                          : Variable
Frame rate                               : 23.976 fps
Minimum frame rate                       : 23.923 fps
Maximum frame rate                       : 24.026 fps
Color space                              : YUV
Chroma subsampling                       : 4:2:0
Bit depth                                : 8 bits
Scan type                                : Progressive
Bits/(Pixel*Frame)                       : 0.217
Stream size                              : 6.83 GiB (83%)
Writing library                          : x264 core 130 r2273 b3065e6
Encoding settings                        : cabac=1 / ref=4 / deblock=1:0:0 / analyse=0x3:0x133 / me=umh / subme=10 / psy=1 / psy_rd=1.00:0.00 / mixed_ref=1 / me_range=32 / chroma_me=1 / trellis=2 / 8x8dct=1 / cqm=0 / deadzone=21,11 / fast_pskip=1 / chroma_qp_offset=-2 / threads=12 / lookahead_threads=1 / sliced_threads=0 / nr=0 / decimate=1 / interlaced=0 / bluray_compat=0 / constrained_intra=0 / bframes=4 / b_pyramid=2 / b_adapt=2 / b_bias=0 / direct=3 / weightb=1 / open_gop=0 / weightp=2 / keyint=240 / keyint_min=24 / scenecut=40 / intra_refresh=0 / rc_lookahead=40 / rc=2pass / mbtree=0 / bitrate=8000 / ratetol=1.0 / qcomp=0.60 / qpmin=0 / qpmax=69 / qpstep=4 / cplxblur=20.0 / qblur=0.5 / vbv_maxrate=25000 / vbv_bufsize=25000 / nal_hrd=none / ip_ratio=1.40 / pb_ratio=1.30 / aq=1:1.00
Language                                 : English
Encoded date                             : UTC 2014-04-05 22:05:13
Tagged date                              : UTC 2014-04-05 22:07:54
Color primaries                          : BT.709-5, BT.1361, IEC 61966-2-4, SMPTE RP177
Transfer characteristics                 : BT.709-5, BT.1361
Matrix coefficients                      : BT.709-5, BT.1361, IEC 61966-2-4 709, SMPTE RP177
Video #2
ID                                       : 10
Format                                   : JPEG
Codec ID                                 : jpeg
Duration                                 : 2h 2mn
Bit rate mode                            : Variable
Bit rate                                 : 622 bps
Width                                    : 640 pixels
Height                                   : 266 pixels
Display aspect ratio                     : 2.40:1
Frame rate mode                          : Variable
Frame rate                               : 0.002 fps
Minimum frame rate                       : 0.001 fps
Maximum frame rate                       : 0.005 fps
Color space                              : YUV
Chroma subsampling                       : 4:2:0
Bit depth                                : 8 bits
Compression mode                         : Lossy
Bits/(Pixel*Frame)                       : 1.827
Stream size                              : 608 KiB (0%)
Language                                 : English
Encoded date                             : UTC 2014-04-05 22:08:02
Tagged date                              : UTC 2014-04-05 22:08:02
Audio #1
ID                                       : 2
Format                                   : AAC
Format/Info                              : Advanced Audio Codec
Format profile                           : LC
Codec ID                                 : 40
Duration                                 : 2h 2mn
Bit rate mode                            : Variable
Bit rate                                 : 158 Kbps
Maximum bit rate                         : 242 Kbps
Channel(s)                               : 2 channels
Channel positions                        : Front: L R
Sampling rate                            : 48.0 KHz
Compression mode                         : Lossy
Stream size                              : 139 MiB (2%)
Language                                 : Russian
Encoded date                             : UTC 2014-04-05 22:05:13
Tagged date                              : UTC 2014-04-05 22:06:26
Audio #2
ID                                       : 4
Format                                   : AAC
Format/Info                              : Advanced Audio Codec
Format profile                           : LC
Codec ID                                 : 40
Duration                                 : 2h 2mn
Bit rate mode                            : Variable
Bit rate                                 : 159 Kbps
Maximum bit rate                         : 245 Kbps
Channel(s)                               : 2 channels
Channel positions                        : Front: L R
Sampling rate                            : 48.0 KHz
Compression mode                         : Lossy
Stream size                              : 139 MiB (2%)
Language                                 : English
Encoded date                             : UTC 2014-04-05 22:05:14
Tagged date                              : UTC 2014-04-05 22:06:34
Audio #3
ID                                       : 5
Format                                   : AC-3
Format/Info                              : Audio Coding 3
Mode extension                           : CM (complete main)
Format settings, Endianness              : Big
Codec ID                                 : ac-3
Duration                                 : 2h 2mn
Bit rate mode                            : Constant
Bit rate                                 : 640 Kbps
Channel(s)                               : 6 channels
Channel positions                        : Front: L C R, Side: L R, LFE
Sampling rate                            : 48.0 KHz
Bit depth                                : 16 bits
Compression mode                         : Lossy
Stream size                              : 560 MiB (7%)
Language                                 : Russian
Encoded date                             : UTC 2014-04-05 22:05:14
Tagged date                              : UTC 2014-04-05 22:05:27
Audio #4
ID                                       : 6
Format                                   : AC-3
Format/Info                              : Audio Coding 3
Mode extension                           : CM (complete main)
Format settings, Endianness              : Big
Codec ID                                 : ac-3
Duration                                 : 2h 2mn
Bit rate mode                            : Constant
Bit rate                                 : 640 Kbps
Channel(s)                               : 6 channels
Channel positions                        : Front: L C R, Side: L R, LFE
Sampling rate                            : 48.0 KHz
Bit depth                                : 16 bits
Compression mode                         : Lossy
Stream size                              : 560 MiB (7%)
Language                                 : English
Encoded date                             : UTC 2014-04-05 22:05:14
Tagged date                              : UTC 2014-04-05 22:05:30
Text #1
ID                                       : 7
Format                                   : Timed text
Muxing mode                              : sbtl
Codec ID                                 : tx3g
Duration                                 : 1h 52mn
Bit rate mode                            : Variable
Bit rate                                 : 132 bps
Stream size                              : 109 KiB (0%)
Language                                 : Russian
Encoded date                             : UTC 2014-04-05 22:05:14
Tagged date                              : UTC 2014-04-05 22:05:14
Text #2
ID                                       : 8
Format                                   : Timed text
Muxing mode                              : sbtl
Codec ID                                 : tx3g
Duration                                 : 1h 52mn
Bit rate mode                            : Variable
Bit rate                                 : 77 bps
Stream size                              : 63.5 KiB (0%)
Language                                 : English
Encoded date                             : UTC 2014-04-05 22:05:14
Tagged date                              : UTC 2014-04-05 22:05:14
Text #3
ID                                       : 9
Format                                   : Apple text
Codec ID                                 : text
Duration                                 : 2h 2mn
Bit rate mode                            : Variable
Bit rate                                 : 0 bps
Stream size                              : 375 Bytes (0%)
Language                                 : English
Encoded date                             : UTC 2014-04-05 22:07:54
Tagged date                              : UTC 2014-04-05 22:07:54
Menu
00:00:00.000                             : Chapter 1
00:04:55.211                             : Chapter 2
00:10:38.762                             : Chapter 3
00:13:52.580                             : Chapter 4
00:20:12.084                             : Chapter 5
00:26:30.503                             : Chapter 6
00:35:34.046                             : Chapter 7
00:39:41.918                             : Chapter 8
00:46:30.159                             : Chapter 9
00:52:59.506                             : Chapter 10
00:58:41.180                             : Chapter 11
01:05:18.785                             : Chapter 12
01:13:20.975                             : Chapter 13
01:23:37.299                             : Chapter 14
01:33:49.702                             : Chapter 15
01:52:51.634                             : Chapter 16

x264 лог

x264 [info]: frame I:1564  Avg QP:15.43  size:169199  PSNR Mean Y:48.28 U:50.22 V:49.42 Avg:48.70 Global:47.75
x264 [info]: frame P:55846 Avg QP:17.93  size: 66065  PSNR Mean Y:46.95 U:49.28 V:48.30 Avg:47.42 Global:46.26
x264 [info]: frame B:118593 Avg QP:19.61  size: 28484  PSNR Mean Y:46.25 U:49.04 V:47.99 Avg:46.82 Global:45.41
x264 [info]: consecutive B-frames:  7.0%  9.5% 15.7% 41.1% 26.6%
x264 [info]: mb I  I16..4: 14.2% 72.4% 13.3%
x264 [info]: mb P  I16..4:  4.1% 17.8%  1.8%  P16..4: 37.6% 19.1%  9.4%  0.2%  0.1%    skip: 9.9%
x264 [info]: mb B  I16..4:  0.3%  1.7%  0.1%  B16..8: 44.0% 12.1%  2.8%  direct: 7.7%  skip:31.2%  L0:42.9% L1:48.2% BI: 8.9%
x264 [info]: 8x8 transform intra:75.2% inter:65.3%
x264 [info]: direct mvs  spatial:98.0% temporal:2.0%
x264 [info]: coded y,uvDC,uvAC intra: 82.7% 84.7% 62.9% inter: 31.5% 30.1% 7.8%
x264 [info]: i16 v,h,dc,p: 19% 15% 14% 52%
x264 [info]: i8 v,h,dc,ddl,ddr,vr,hd,vl,hu:  8% 10%  6% 10% 14% 13% 14% 12% 13%
x264 [info]: i4 v,h,dc,ddl,ddr,vr,hd,vl,hu:  9% 11%  5%  9% 15% 14% 14% 10% 13%
x264 [info]: i8c dc,h,v,p: 40% 22% 17% 21%
x264 [info]: Weighted P-Frames: Y:2.7% UV:1.5%
x264 [info]: ref P L0: 54.5%  9.9% 23.4%  9.8%  2.3%  0.0%
x264 [info]: ref B L0: 82.9% 13.9%  3.3%
x264 [info]: ref B L1: 92.4%  7.6%
x264 [info]: SSIM Mean Y:0.9820399 (17.457db)
x264 [info]: PSNR Mean Y:46.487 U:49.125 V:48.103 Avg:47.028 Global:45.682 kb/s:7990.49
Скриншоты:Релиз подготовлен для просмотра на Apple TV, iPad, iPhone, iPod Touch.
Для просмотра данного релиза на компьютере с ОС Windows рекомендуется использовать VLC media player
Яндекс.Метрика
Рейтинг@Mail.ru