Ожидание / The Wait (М. Блаш / M. Blash) [2013 г., триллер, драма, WEB-DL] MVO

 

Создавать темы 04-Апр-2014 17:24

-Ожидание / The Wait-«Кто решает, что есть реальность?»- Производство: США / Essentia, Olympus Pictures, Sammy Films
Год выпуска: 2013 г.
Жанр: триллер, драма
Продолжительность: 01:37:16
Мировая премьера: 1 сентября 2013
Российская премьера: 20 февраля 2014, «P&I Films»
Перевод: Профессиональный (многоголосый, закадровый)-Режиссер: М. Блаш / M. Blash
В ролях: Джена Мэлоун, Клоэ Севиньи, Люк Граймс, Девон Джирхарт, Майкл О’Киф, Джош Хэмилтон, Лана Элизабет Грин, Генри Гаммер, Трей Хансен, Карен Толвстад-Описание:-Две сестры, мать которых недавно скончалась, находятся в её доме. Загадочный звонок от медиума вводит их в состояние трепетного ожидания её вероятного воскрешения. Одна из них уверена в том, что чудо произойдёт, вторая же считала это бредом. Но, внезапно обретя настоящую любовь, и она поддаётся этой вере. Фантазия и реальность, мир мёртвых и мир живых, соперничество и непонимание затягивают двух сестер в мистический водоворот…- -Качество видео: WEB-DL
Контейнер: AVI
Видео кодек: XviD
Аудио кодек: AC3
Видео: 720x400 (1.80:1), 23.976 fps, XviD build 50 ~1944 kbps avg, 0.28 bit/pixel
Аудио: 48 kHz, AC3 Dolby Digital, 2/0 (L,R) ch, ~192 kbps
Cубтитры: отсутствуют

Media Info

General
Complete name                            : D:\Ozhidanie.2013.P.WEBDLRip.avi
Format                                   : AVI
Format/Info                              : Audio Video Interleave
File size                                : 1.46 GiB
Duration                                 : 1h 37mn
Overall bit rate                         : 2 146 Kbps
Writing application                      : VirtualDubMod 1.5.10.2 (build 2540/release)
Writing library                          : VirtualDubMod build 2540/release
Video
ID                                       : 0
Format                                   : MPEG-4 Visual
Format profile                           : Advanced [email protected]
Format settings, BVOP                    : 2
Format settings, QPel                    : No
Format settings, GMC                     : No warppoints
Format settings, Matrix                  : Default (MPEG)
Codec ID                                 : XVID
Codec ID/Hint                            : XviD
Duration                                 : 1h 37mn
Bit rate                                 : 1 945 Kbps
Width                                    : 720 pixels
Height                                   : 400 pixels
Display aspect ratio                     : 16:9
Frame rate                               : 23.976 fps
Color space                              : YUV
Chroma subsampling                       : 4:2:0
Bit depth                                : 8 bits
Scan type                                : Progressive
Compression mode                         : Lossy
Bits/(Pixel*Frame)                       : 0.282
Stream size                              : 1.32 GiB (91%)
Writing library                          : XviD 1.2.1 (UTC 2008-12-04)
Audio
ID                                       : 1
Format                                   : AC-3
Format/Info                              : Audio Coding 3
Mode extension                           : CM (complete main)
Format settings, Endianness              : Big
Codec ID                                 : 2000
Duration                                 : 1h 37mn
Bit rate mode                            : Constant
Bit rate                                 : 192 Kbps
Channel(s)                               : 2 channels
Channel positions                        : Front: L R
Sampling rate                            : 48.0 KHz
Bit depth                                : 16 bits
Compression mode                         : Lossy
Stream size                              : 134 MiB (9%)
Alignment                                : Split accross interleaves
Interleave, duration                     : 42 ms (1.00 video frame)
Interleave, preload duration             : 500 ms

Скриншоты

Яндекс.Метрика
Рейтинг@Mail.ru