Великий диктатор / The Great Dictator (Чарльз Чаплин / Charles Chaplin) [1940 г., драма, комедия, военный, BDRip] MVO + Original (Eng)

 

Создавать темы 04-Апр-2014 17:15

-Великий диктатор / The Great Dictator-- Производство: США, Charles Chaplin Productions
Год выпуска: 1940 г.
Жанр: драма, комедия, военный
Продолжительность: 02:05:15
Мировая премьера: 15 октября 1940
Дата выхода DVD: 19 февраля 2009, «Мьюзик-Трейд»
Дата выхода Blu-Ray: 5 июля 2011, «Деваль-Видео»
Перевод: Профессиональный (многоголосый, закадровый)
Оригинальный аудиопоток: английский
Режиссер: Чарльз Чаплин / Charles Chaplin-В ролях: Чарльз Чаплин, Полетт Годдард, Джек Оуки, Реджинальд Гардинер, Генри Дэниелл, Билли Гилберт, Грейс Хейл, Картер Де Хейвен, Морис Москович, Эмма Данн-Описание: Первый полностью звуковой фильм Чарльза Чаплина. Он играет сразу две роли: фашистского диктатора Аденоида Хинкеля (недвусмысленно загримированной под Гитлера) и еврея — парикмахера, который как две капли воды похож на него.-
Качество видео: BDRip
Контейнер: AVI
Видео кодек: XviD
Аудио кодек: AC3
Видео: 704x528 (1.33:1), XviD build 50 ~ 1846 kbps avg, 23.976 fps, 0.21 bit/pixel
Аудио: Русский: 448 kbps, AC3 Dolby Digital, 3/2 (L,C,R,l,r) + LFE ch, 48 kHz [xamster]
Аудио #2: Английский: 192 kbps, AC3 Dolby Digital, 2/0 (L,R), 48 kHz [Оригинал]
Cубтитры: отсутствуют

Media Info

Общее
Полное имя : Великий диктатор.DUAL.BDRip.avi
Формат : AVI
Формат/Информация : Audio Video Interleave
Профиль формата : OpenDML
Размер файла : 2,18 Гбайт
Продолжительность : 2 ч. 5 м.
Общий поток : 2493 Кбит/сек
Название фильма : Velikiy.Dikatator.1940.DUAL.BDRip.XviD.AC3.
Автор рипа : kingsize87
Программа кодирования : VirtualDubMod 1.5.10.2 (build 2542/release)
Примечание : 19.05.2010
Видео
Идентификатор : 0
Формат : MPEG-4 Visual
Профиль формата : Advanced [email protected]
Параметр BVOP формата : 1
Параметр QPel формата : Нет
Параметр GMC формата : Без точки перехода
Параметр матрицы формата : Выборочная
Идентификатор кодека : XVID
Идентификатор кодека/Подсказка : XviD
Продолжительность : 2 ч. 5 м.
Битрейт : 1835 Кбит/сек
Ширина : 704 пикселя
Высота : 528 пикселей
Соотношение сторон : 4:3
Частота кадров : 23,976 кадра/сек
Цветовое пространство : YUV
Субдискретизация насыщенности : 4:2:0
Битовая глубина : 8 бит
Тип развёртки : Прогрессивная
Метод сжатия : С потерями
Бит/(Пиксели*Кадры) : 0.206
Размер потока : 1,61 Гбайт (74%)
Библиотека кодирования : XviD 1.2.1 (UTC 2008-12-04)
Аудио #1
Идентификатор : 1
Формат : AC-3
Формат/Информация : Audio Coding 3
Расширение режима : CM (complete main)
Параметр Endianness формата : Big
Идентификатор кодека : 2000
Продолжительность : 2 ч. 5 м.
Вид битрейта : Постоянный
Битрейт : 448 Кбит/сек
Каналы : 6 каналов
Расположение каналов : Front: L C R, Side: L R, LFE
Частота : 48,0 КГц
Битовая глубина : 16 бит
Метод сжатия : С потерями
Размер потока : 401 Мбайт (18%)
Выравнивание : Разделение по промежуткам
Продолжительность промежутка : 42 мс. (1,00 видеокадр)
Время предзагрузки промежутка : 500 мс.
Аудио #2
Идентификатор : 2
Формат : AC-3
Формат/Информация : Audio Coding 3
Расширение режима : CM (complete main)
Параметр Endianness формата : Big
Идентификатор кодека : 2000
Продолжительность : 2 ч. 5 м.
Вид битрейта : Постоянный
Битрейт : 192 Кбит/сек
Каналы : 2 канала
Расположение каналов : Front: L R
Частота : 48,0 КГц
Битовая глубина : 16 бит
Метод сжатия : С потерями
Размер потока : 172 Мбайт (8%)
Выравнивание : Разделение по промежуткам
Продолжительность промежутка : 42 мс. (1,00 видеокадр)
Время предзагрузки промежутка : 500 мс.

Скриншоты

Яндекс.Метрика
Рейтинг@Mail.ru