Под прицелом / Серии: 1-16 из 16 (Виктор Конисевич) [2013, Детектив, криминальный фильм, SATRip]

 

Создавать темы 04-Апр-2014 09:51

-Под прицелом- Год выпуска: 2013
Производство: ООО «Телекомпания „Мостелефильм Дистрибьюшн“»
Жанр: Детектив, криминальный фильм
Продолжительность: ~0:45:00 серия
Субтитры: нет
Режиссёр: Виктор Конисевич
В ролях: Нина Гогаева, Роман Курцын, Андрей Харитонов, Сергей Жарков, Дмитрий Бакунин, Владимир Гусев, Валерий Новиков, Игорь Головин, Игорь Савочкин
Описание: Руководство одного из столичных отделений полиции решило провести эксперимент – в целях улучшения качества работы сотрудников во время службы будут снимать камеры наблюдения. Они, конечно, не в восторге, но вынуждены подчиниться распоряжению начальства. Теперь полицейским нужно научиться расследовать преступления и работать с нарушителями очень осторожно… У каждого сотрудника своя история и проблемы. Старший следователь, майор Афродита Морозова, и старший оперуполномоченный, подполковник Антон Раевский, явно симпатизируют друг другу. Но у женщины сложные отношения с мужем, а Раевский хочет уйти на пенсию, так как не видит для себя перспектив. Не все благополучно и у их коллег. Старший следователь Юлия Хорькова содержит мужа-художника и никак не может забеременеть. Участковый Павел Карасев потерял год назад в автокатастрофе жену и сына, и это часто заставляет его задумываться о самоубийстве. А девушка старшего оперуполномоченного — капитана Олега Павлова, известная в Москве певица, недовольна тем, что тот мало зарабатывает. Похоже, что все хорошо только у старшего участкового Николая Сливина: у него и жена, и любовница, и взятки… Каково им будет жить на виду?
Качество: SATRip
Формат: AVI
Видео кодек: XviD
Аудио кодек:MP3
Видео: 720x448 (1.61:1), 25 fps, XviD MPEG-4 ~1794 kbps avg, 0.22 bit/pixel
Аудио: 48 kHz, MPEG Layer 3, 2 ch, ~128.00 kbps avg
Сторонней рекламы нет!

MediaInfo

ОбщееПолное имя : E:\Downloads\55\Под прицелом SATRip XviD\Под прицелом 01_серия_SATRip_XviD.aviФормат : AVIФормат/Информация : Audio Video InterleaveРазмер файла : 604 МбайтПродолжительность : 43 м.Общий поток : 1933 Кбит/секПрограмма кодирования : VirtualDubMod 1.5.10.3 | www.virtualdub-fr.org || (build 2550/release)Библиотека кодирования : VirtualDub build 32507/release
ВидеоИдентификатор : 0Формат : MPEG-4 VisualПрофиль формата : Advanced [email protected] BVOP формата : 2Параметр QPel формата : НетПараметр GMC формата : Без точки переходаПараметр матрицы формата : Default (MPEG)Идентификатор кодека : XVIDИдентификатор кодека/Подсказка : XviDПродолжительность : 43 м.Битрейт : 1795 Кбит/секШирина : 720 пикс.Высота : 448 пикс.Соотношение сторон : 1,607Частота кадров : 25,000 кадр/секЦветовое пространство : YUVПодвыборка цветности : 4:2:0Битовая глубина : 8 битТип развёртки : ПрогрессивнаяМетод сжатия : С потерямиБит/(Пиксели*Кадры) : 0.223Размер потока : 561 Мбайт (93%)Библиотека кодирования : XviD 1.2.1 (UTC 2008-12-04)
АудиоИдентификатор : 1Формат : MPEG AudioВерсия формата : Version 1Профиль формата : Layer 3Режим : Joint stereoИдентификатор кодека : 55Идентификатор кодека/Подсказка : MP3Продолжительность : 43 м.Вид битрейта : ПостоянныйБитрейт : 128 Кбит/секКаналы : 2 каналаЧастота : 48,0 КГцМетод сжатия : С потерямиРазмер потока : 40,0 Мбайт (7%)Выравнивание : Соединение по промежуткамПродолжительность промежутка : 40 мс. (1,00 видеокадр)Время предзагрузки промежутка : 504 msБиблиотека кодирования : LAME3.99rНастройки программы : -m j -V 4 -q 2 -lowpass 17 -b 128
Раздача группы:
Отдельное спасибо ВИТ555 за предоставление материала.
ВНИМАНИЕ! ТОРРЕНТ ПЕРЕЗАЛИТ! ДОБАВЛЕНА ЗАКЛЮЧИТЕЛЬНАЯ 16-ая СЕРИЯ!

Скриншоты

Яндекс.Метрика
Рейтинг@Mail.ru