Король обезьян / The Monkey King (Поу-Сои Чинг / Pou-Soi Cheang) [2014 г., боевик, приключения, семейный, HDRip] VO [Виктор Береговых] + Original (Chi)

 

Создавать темы 03-Апр-2014 14:51

--Король обезьян / The Monkey King-- Производство: Китай, Гонконг, США, Beijing Wen Hua Dong Run Investment Co., Filmko Pictures
Год выпуска: 2014 г.
Жанр: боевик, приключения, семейный
Продолжительность: 01:59:18--Мировая премьера: 30 января 2014--Перевод: Любительский (одноголосый закадровый) [Виктор Береговых]
Оригинальный аудиопоток: китайский--Режиссер: Поу-Сои Чинг / Pou-Soi Cheang--В ролях: Донни Йен, Чоу Юнь-Фат, Аарон Квок, Джо Чэнь, Моника Мок--Описание: Фильм расскажет историю начиная с рождения Сунь Укуна (короля обезьян) и вплоть до его тюремного заключения за свои преступления…--- --Качество видео: HDRip
Контейнер: AVI
Видео кодек: XviD
Аудио кодек: MP3/AC3
Видео: 720x304 (2.37:1), 23.976 fps, XviD build 50 ~1882 kbps avg, 0.36 bit/pixel
Аудио 1: 44.100 kHz, MPEG Layer 3, 2 ch, ~192.00 kbps avg VO [Виктор Береговых]
Аудио 2: 48 kHz, AC3 Dolby Digital, 3/2 (L,C,R,l,r) + LFE ch, ~384 kbps Китайский
Cубтитры: отсутствуют

Media Info

Общее
Полное имя : D:\Torrent 2\The.Monkey.King.2014.L1.HDRip.2100MB.avi
Формат : AVI
Формат/Информация : Audio Video Interleave
Профиль формата : OpenDML
Размер файла : 2,05 Гбайт
Продолжительность : 1 ч. 59 м.
Общий поток : 2465 Кбит/сек
Программа кодирования : VirtualDubMod 1.5.10.3 | www.virtualdub-fr.org || (build 2550/release)
Библиотека кодирования : VirtualDubMod build 2550/release
Видео
Идентификатор : 0
Формат : MPEG-4 Visual
Профиль формата : Advanced [email protected]
Параметр BVOP формата : 2
Параметр QPel формата : Нет
Параметр GMC формата : Без точки перехода
Параметр матрицы формата : Выборочная
Идентификатор кодека : XVID
Идентификатор кодека/Подсказка : XviD
Продолжительность : 1 ч. 59 м.
Битрейт : 1871 Кбит/сек
Ширина : 720 пикселей
Высота : 304 пикселя
Соотношение сторон : 2,35:1
Частота кадров : 23,976 кадра/сек
Цветовое пространство : YUV
Субдискретизация насыщенности : 4:2:0
Битовая глубина : 8 бит
Тип развёртки : Прогрессивная
Метод сжатия : С потерями
Бит/(Пиксели*Кадры) : 0.356
Размер потока : 1,56 Гбайт (76%)
Библиотека кодирования : XviD 1.2.1 (UTC 2008-12-04)
Аудио #1
Идентификатор : 1
Формат : MPEG Audio
Версия формата : Version 1
Профиль формата : Layer 3
Идентификатор кодека : 55
Идентификатор кодека/Подсказка : MP3
Продолжительность : 1 ч. 59 м.
Вид битрейта : Постоянный
Битрейт : 192 Кбит/сек
Каналы : 2 канала
Частота : 44,1 КГц
Метод сжатия : С потерями
Задержка видео : 200 мс.
Размер потока : 164 Мбайт (8%)
Выравнивание : Разделение по промежуткам
Продолжительность промежутка : 42 мс. (1,00 видеокадр)
Время предзагрузки промежутка : 500 мс.
Аудио #2
Идентификатор : 2
Формат : AC-3
Формат/Информация : Audio Coding 3
Расширение режима : CM (complete main)
Параметр Endianness формата : Big
Идентификатор кодека : 2000
Продолжительность : 1 ч. 59 м.
Вид битрейта : Постоянный
Битрейт : 384 Кбит/сек
Каналы : 6 каналов
Расположение каналов : Front: L C R, Side: L R, LFE
Частота : 48,0 КГц
Битовая глубина : 16 бит
Метод сжатия : С потерями
Задержка видео : 200 мс.
Размер потока : 328 Мбайт (16%)
Выравнивание : Разделение по промежуткам
Продолжительность промежутка : 42 мс. (1,00 видеокадр)
Время предзагрузки промежутка : 500 мс.

Скриншоты

Трейлер

Создавать темы 03-Апр-2014 16:53 (спустя 2 часа 2 минуты)

Топик был перенесен из форума Отечественные Новинки (HD*Rip/LQ, DVDRip) в форум Зарубежные Новинки (HD*Rip/LQ, DVDRip)
Sergei3744
Яндекс.Метрика
Рейтинг@Mail.ru