Пылающий остров / Зной Явы / Java Heat ( Конор Эллин)(2013,боевик, триллер, драма, криминал) BDRip 1080p от CINEMANIA | D, L1

 

Создавать темы 03-Апр-2014 09:51

Информация о фильме
Название: Пылающий остров
Оригинальное название: Java Heat
Год выхода: 2013
Жанр: боевик, триллер, драма, криминал
Режиссер: Конор Эллин
В ролях: Келлан Латс, Микки Рурк, Арио Баю, Тио Пакусодево, Атика Хасихолан, Верди Солайман, Рахайу Сарасвати, Майкл Дункан, Агунг Удиджана, Рио Деванто
О фильме:
Джейк – молодой американец, приехавший в Азию и попавший в самую гущу по-настоящему горячих и опасных событий. После ряда взрывов выясняется, что дочь султана исчезла, и полиция делает вывод, что она стала одной из жертв в ходе очередного теракта. В числе людей, обнаруженных рядом с местом взрыва, оказался Джейк, и детектив полиции Хасим привлек его к расследованию в качестве свидетеля.
Со временем Джейк, мягко говоря, не сочувствующий действиям исламских экстремистов и террористов, объединился с детективом, чтобы расследовать преступления, и в скором времени они узнали, что за терактами скрываются преступления совсем другого порядка, и исламские террористы вряд ли имеют к ним какое-либо отношение. Взрывы служат прикрытием для кражи самых разных ценностей, и дочь султана, которую сочли погибшей, в данный момент находится в заложницах у вора. А это значит, что Хасиму и Джейку придется сделать все возможное, чтобы спасти ее и обезвредить похитителя.
Выпущено: США
Продолжительность: 01:43:46
Озвучивание:
Дублированное [студия "Пифагор" / «TV1000 Megahit HD»]
Любительское (одноголосое) [den904]
Файл
Формат: MKV
Качество: BDRip 1080p [beAst]
Видео: 10522 kb/s, 1920x816
Аудио:
Russian: [Пифагор]: AC3, 192 kb/s (2 ch)
Russian: [den904]: AC3, 448 kb/s (6 ch)
English: DTS, 768 kb/s (6 ch)
Субтитры: Russian [kon2011], English
Дополнительно: Сохранены оригинальные чаптеры как на Blu-ray
Размер: 8.63 Gb

NFO

Общее
Java.Heat.2013.Blu.Ray.1080p.CINEMANIA.mkv
Формат : Matroska
Версия формата : Version 4 / Version 2
Размер файла : 8,63 Гбайт
Продолжительность : 1 ч. 43 м.
Общий поток : 11,9 Мбит/сек
Название фильма : Release Group CINEMANIA
Дата кодирования : UTC 2014-04-02 21:37:41
Программа кодирования : mkvmerge v6.8.0 ('Theme for Great Cities') 64bit built on Mar 2 2014 21:34:26
Библиотека кодирования : libebml v1.3.0 + libmatroska v1.4.1
Видео
Идентификатор : 1
Формат : AVC
Формат/Информация : Advanced Video Codec
Профиль формата : [email protected]
Параметр CABAC формата : Да
Параметр ReFrames формата : 5 кадров
Идентификатор кодека : V_MPEG4/ISO/AVC
Продолжительность : 1 ч. 43 м.
Битрейт : 10,5 Мбит/сек
Ширина : 1920 пикселей
Высота : 816 пикселей
Соотношение сторон : 2,35:1
Режим частоты кадров : Постоянный
Частота кадров : 23,976 кадра/сек
Цветовое пространство : YUV
Субдискретизация насыщенности : 4:2:0
Битовая глубина : 8 бит
Тип развёртки : Прогрессивная
Бит/(Пиксели*Кадры) : 0.280
Размер потока : 7,44 Гбайт (86%)
Заголовок : Release Group CINEMANIA
Библиотека кодирования : x264 core 129 r2245 bc13772
Настройки программы : cabac=1 / ref=5 / deblock=1:-3:-3 / analyse=0x3:0x133 / me=umh / subme=11 / psy=1 / psy_rd=1.10:0.10 / mixed_ref=1 / me_range=32 / chroma_me=1 / trellis=2 / 8x8dct=1 / cqm=0 / deadzone=21,11 / fast_pskip=0 / chroma_qp_offset=-2 / threads=6 / lookahead_threads=1 / sliced_threads=0 / nr=0 / decimate=1 / interlaced=0 / bluray_compat=0 / constrained_intra=0 / bframes=6 / b_pyramid=2 / b_adapt=2 / b_bias=0 / direct=3 / weightb=1 / open_gop=0 / weightp=2 / keyint=250 / keyint_min=23 / scenecut=40 / intra_refresh=0 / rc_lookahead=40 / rc=2pass / mbtree=0 / bitrate=10500 / ratetol=1.0 / qcomp=0.70 / qpmin=0 / qpmax=69 / qpstep=4 / cplxblur=20.0 / qblur=0.5 / vbv_maxrate=45000 / vbv_bufsize=45000 / nal_hrd=none / ip_ratio=1.40 / pb_ratio=1.30 / aq=2:0.90
Язык : English
Default : Да
Forced : Нет
Аудио #1
Идентификатор : 2
Формат : AC-3
Формат/Информация : Audio Coding 3
Расширение режима : CM (complete main)
Параметр Endianness формата : Big
Идентификатор кодека : A_AC3
Продолжительность : 1 ч. 43 м.
Вид битрейта : Постоянный
Битрейт : 192 Кбит/сек
Каналы : 2 канала
Расположение каналов : Front: L R
Частота : 48,0 КГц
Битовая глубина : 16 бит
Метод сжатия : С потерями
Размер потока : 143 Мбайт (2%)
Заголовок : Дубляж
Язык : Russian
Default : Да
Forced : Да
Аудио #2
Идентификатор : 3
Формат : AC-3
Формат/Информация : Audio Coding 3
Расширение режима : CM (complete main)
Параметр Endianness формата : Big
Идентификатор кодека : A_AC3
Продолжительность : 1 ч. 43 м.
Вид битрейта : Постоянный
Битрейт : 448 Кбит/сек
Каналы : 6 каналов
Расположение каналов : Front: L C R, Side: L R, LFE
Частота : 48,0 КГц
Битовая глубина : 16 бит
Метод сжатия : С потерями
Размер потока : 333 Мбайт (4%)
Заголовок : den904
Язык : Russian
Default : Нет
Forced : Нет
Аудио #3
Идентификатор : 4
Формат : DTS
Формат/Информация : Digital Theater Systems
Режим : 16
Параметр Endianness формата : Big
Идентификатор кодека : A_DTS
Продолжительность : 1 ч. 43 м.
Вид битрейта : Постоянный
Битрейт : 768 Кбит/сек
Каналы : 6 каналов
Расположение каналов : Front: L C R, Side: L R, LFE
Частота : 48,0 КГц
Битовая глубина : 16 бит
Метод сжатия : С потерями
Размер потока : 570 Мбайт (6%)
Язык : English
Default : Нет
Forced : Нет
Текст #1
Идентификатор : 5
Формат : UTF-8
Идентификатор кодека : S_TEXT/UTF8
Идентификатор кодека/Информация : UTF-8 Plain Text
Заголовок : kon2011
Язык : Russian
Default : Нет
Forced : Нет
Текст #2
Идентификатор : 6
Формат : UTF-8
Идентификатор кодека : S_TEXT/UTF8
Идентификатор кодека/Информация : UTF-8 Plain Text
Язык : English
Default : Нет
Forced : Нет
Меню
00:00:00.000 : en:00:00:00.000
00:00:58.267 : en:00:00:58.267
00:10:54.237 : en:00:10:54.237
00:18:57.636 : en:00:18:57.636
00:31:08.158 : en:00:31:08.158
00:41:59.934 : en:00:41:59.934
00:50:22.937 : en:00:50:22.937
01:00:12.943 : en:01:00:12.943
01:09:59.320 : en:01:09:59.320
01:21:57.621 : en:01:21:57.621
01:35:30.308 : en:01:35:30.308
01:38:19.769 : en:01:38:19.769
Яндекс.Метрика
Рейтинг@Mail.ru