[ Сегодня на трекере фрилич! Идет свободное скачивание без начисления Download ]

(Trance) VA - A State of Trance 2014 (Mixed by Armin van Buuren) 2СD - 2014 [FLAC, image+.cue, lossless]

 

Создавать темы 03-Апр-2014 06:52

-Various Artists - A State of Trance 2014 (Mixed by Armin van Buuren) 2СD-- Год издания: 2014
Страна: Netherlands
Жанр: Trance
Продолжительность: 02:29:32-Лейбл издания: Open Gate / Armada
Тип альбома: СD
Страна-выпуска диска: Russia
Номер по каталогу: ПРЗ CD08661
Формат: FLAC
Битрейт аудио: lossless
Тип рипа: image+.cue
Наличие сканов в содержимом раздачи: нет-

Трэклист

CD-1 On The Beach:

01. Adam Szabo & Willem de Roo - Medusa (Intro Mix)
02. Tommy Johnson feat. Nanje Nowack - Burn The Sun
03. Alex M.O.R.P.H. feat. Natalie Gioia - My Heaven
04. Dart Rayne & Yura Moonlight - Athena
05. Andrew Bayer - Once Lydian
06. Aly & Fila feat. Jaren - End Of The Road (Hazem Beltagui Remix)
07. Bogdan Vix & Renee Stahl - Forever
08. Fabio XB & Liuck feat. Christina Novelli - Back To You (Wach Remix)
09. Andrew Rayel feat. Alexandra Badoi - Goodbye
10. MaRLo feat. Jano - Haunted
11. Soarsweep - Between Empires
12. Craig Connelly - Decibels
13. Gareth Emery feat. Bo Bruce - U (Bryan Kearney Remix)
14. Protoculture - Music Is More Than Mathematics
15. Max Graham vs Maarten de Jong - Lekker
16. Markus Schulz - Destino
17. RAM & Susana - RAMelia (Tribute To Amelia)

CD-2 In The Club:

01. Armin van Buuren & Andrew Rayel - EIFORYA (Intro Mix)
02. Ørjan Nilsen - The Late Anthem (Way Too Late Mix)
03. Alexander Popov - Quantum
04. Eximinds - Phoenix
05. Gaia - Empire Of Hearts
06. RAM - Kingdom Of Dreams
07. Type 41 - Mythology (Dimension Remix)
08. MaRLo - Visions
09. Inge Bergmann - Oblivion
10. Wach - Carthage
11. Jorn van Deynhoven - New Horizons (A State Of Trance 650 Anthem)
12. Dart Rayne & Yura Moonlight and Katty Heath - Stole The Sun (Allen & Envy Remix)
13. Simon O'Shine & Adam Navel - Marathon (Simon O'Shine Remix)
14. Allen Watts - Blackout
15. James Dymond - Siren's Song
16. John Askew - Shine
17. Armin van Buuren - Save My Night (Allen Watts Remix)
18. Armin van Buuren - Ping Pong

Лог создания рипа

CD-1:

Exact Audio Copy V1.0 beta 3 from 29. August 2011
Отчёт EAC об извлечении, выполненном 1. апреля 2014, 0:43
VA / A State of Trance 2014 (Mixed by Armin van Buuren) (CD1)
Дисковод: TSSTcorpBDDVDW SE-506BB Adapter: 1 ID: 0
Режим чтения : Достоверность
Использование точного потока : Да
Отключение кэша аудио : Да
Использование указателей C2 : Нет
Коррекция смещения при чтении : 6
Способность читать области Lead-in и Lead-out : Нет
Заполнение пропущенных сэмплов тишиной : Да
Удаление блоков с тишиной в начале и конце : Нет
При вычислениях CRC использовались нулевые сэмплы : Да
Интерфейс : Встроенный Win32-интерфейс для Win NT/2000
Выходной формат : Пользовательский кодировщик
Выбранный битрейт : 128 kBit/s
Качество : Высокий
Добавление ID3-тега : Нет
Утилита сжатия : C:\Program Files (x86)\Exact Audio Copy\Flac\flac.exe
Дополнительные параметры : -V -8 -T "Date=%year%" -T "Genre=%genre%" %source%
TOC извлечённого CD
Трек | Старт | Длительность | Начальный сектор | Конечный сектор
---------------------------------------------------------------------
1 | 0:00.00 | 4:32.52 | 0 | 20451
2 | 4:32.52 | 3:56.24 | 20452 | 38175
3 | 8:29.01 | 3:38.15 | 38176 | 54540
4 | 12:07.16 | 2:58.14 | 54541 | 67904
5 | 15:05.30 | 4:18.35 | 67905 | 87289
6 | 19:23.65 | 4:55.28 | 87290 | 109442
7 | 24:19.18 | 5:53.71 | 109443 | 135988
8 | 30:13.14 | 5:23.26 | 135989 | 160239
9 | 35:36.40 | 2:59.46 | 160240 | 173710
10 | 38:36.11 | 3:32.00 | 173711 | 189610
11 | 42:08.11 | 4:07.52 | 189611 | 208187
12 | 46:15.63 | 3:25.07 | 208188 | 223569
13 | 49:40.70 | 5:37.62 | 223570 | 248906
14 | 55:18.57 | 4:44.34 | 248907 | 270240
15 | 60:03.16 | 4:05.25 | 270241 | 288640
16 | 64:08.41 | 4:37.25 | 288641 | 309440
17 | 68:45.66 | 6:18.62 | 309441 | 337852
Характеристики диапазона извлечения и сообщения об ошибках
Выбранный диапазон
Имя файла C:\Users\Administrator\Desktop\VA - A State of Trance 2014 (Mixed by Armin van Buuren)\VA - A state of Trance 2014 (Mixed by Armin van Buuren) (CD1).wav
Пиковый уровень 96.6 %
Скорость извлечения 5.0 X
Качество диапазона 100.0 %
CRC теста E3801860
CRC копии E3801860
Копирование... OK
Ошибок не произошло
Конец отчёта
==== Контрольная сумма отчёта 24C8E6B1EB8CDBA2BD78E1819722D88EE80D8E1EB24258D8303B54818CF11F42 ====

CD-2:

Exact Audio Copy V1.0 beta 3 from 29. August 2011
Отчёт EAC об извлечении, выполненном 1. апреля 2014, 2:00
VA / A State of Trance 2014 (Mixed by Armin van Buuren) (CD2)
Дисковод: TSSTcorpBDDVDW SE-506BB Adapter: 1 ID: 0
Режим чтения : Достоверность
Использование точного потока : Да
Отключение кэша аудио : Да
Использование указателей C2 : Нет
Коррекция смещения при чтении : 6
Способность читать области Lead-in и Lead-out : Нет
Заполнение пропущенных сэмплов тишиной : Да
Удаление блоков с тишиной в начале и конце : Нет
При вычислениях CRC использовались нулевые сэмплы : Да
Интерфейс : Встроенный Win32-интерфейс для Win NT/2000
Выходной формат : Пользовательский кодировщик
Выбранный битрейт : 128 kBit/s
Качество : Высокий
Добавление ID3-тега : Нет
Утилита сжатия : C:\Program Files (x86)\Exact Audio Copy\Flac\flac.exe
Дополнительные параметры : -V -8 -T "Date=%year%" -T "Genre=%genre%" %source%
TOC извлечённого CD
Трек | Старт | Длительность | Начальный сектор | Конечный сектор
---------------------------------------------------------------------
1 | 0:00.00 | 5:20.62 | 0 | 24061
2 | 5:20.62 | 3:48.57 | 24062 | 41218
3 | 9:09.44 | 2:54.16 | 41219 | 54284
4 | 12:03.60 | 4:08.67 | 54285 | 72951
5 | 16:12.52 | 4:33.58 | 72952 | 93484
6 | 20:46.35 | 4:17.59 | 93485 | 112818
7 | 25:04.19 | 3:01.25 | 112819 | 126418
8 | 28:05.44 | 3:11.74 | 126419 | 140817
9 | 31:17.43 | 3:45.67 | 140818 | 157759
10 | 35:03.35 | 3:46.37 | 157760 | 174746
11 | 38:49.72 | 5:06.06 | 174747 | 197702
12 | 43:56.03 | 3:16.40 | 197703 | 212442
13 | 47:12.43 | 4:45.16 | 212443 | 233833
14 | 51:57.59 | 4:10.33 | 233834 | 252616
15 | 56:08.17 | 2:19.10 | 252617 | 263051
16 | 58:27.27 | 4:10.32 | 263052 | 281833
17 | 62:37.59 | 5:06.07 | 281834 | 304790
18 | 67:43.66 | 6:45.03 | 304791 | 335168
Характеристики диапазона извлечения и сообщения об ошибках
Выбранный диапазон
Имя файла C:\Users\Administrator\Desktop\VA - A State of Trance 2014 (Mixed by Armin van Buuren)\VA - A state of Trance 2014 (Mixed by Armin van Buuren) (CD2).wav
Пиковый уровень 96.6 %
Скорость извлечения 2.2 X
Качество диапазона 100.0 %
CRC теста A74D0001
CRC копии A74D0001
Копирование... OK
Ошибок не произошло
Конец отчёта
==== Контрольная сумма отчёта FBC42741C257A5187327D5B10BF075C0D53D0F589B6175338D5D5D5543CE7E72 ====

Индексная карта (non-compilant .cue)

CD-1:

REM GENRE "Progressive trance"
REM DATE 2014
REM DISCID E6119811
REM COMMENT "ExactAudioCopy v1.0b3"
PERFORMER "VA"
TITLE "A State of Trance 2014 (Mixed by Armin van Buuren) (CD1)"
FILE "VA - A state of Trance 2014 (Mixed by Armin van Buuren) (CD1).flac" WAVE
TRACK 01 AUDIO
TITLE "Medusa (Intro Mix)"
PERFORMER "Adam Szabo & Willem de Roo"
FLAGS DCP
INDEX 01 00:00:00
TRACK 02 AUDIO
TITLE "Burn The Sun"
PERFORMER "Tommy Johnson feat. Nanje Nowack"
FLAGS DCP
INDEX 01 04:32:52
TRACK 03 AUDIO
TITLE "My Heaven"
PERFORMER "Alex M.O.R.P.H. feat. Natalie Gioia"
FLAGS DCP
INDEX 01 08:29:01
TRACK 04 AUDIO
TITLE "Athena"
PERFORMER "Dart Rayne & Yura Moonlight"
FLAGS DCP
INDEX 01 12:07:16
TRACK 05 AUDIO
TITLE "Once Lydian"
PERFORMER "Andrew Bayer"
FLAGS DCP
INDEX 01 15:05:30
TRACK 06 AUDIO
TITLE "End Of The Road (Hazem Beltagui Remix)"
PERFORMER "Aly & Fila feat. Jaren"
FLAGS DCP
INDEX 01 19:23:65
TRACK 07 AUDIO
TITLE "Forever"
PERFORMER "Bogdan Vix & Renee Stahl"
FLAGS DCP
INDEX 01 24:19:18
TRACK 08 AUDIO
TITLE "Back to You (Watch Remix)"
PERFORMER "Fabio XB & Liuck feat. Christina Novelli"
FLAGS DCP
INDEX 01 30:13:14
TRACK 09 AUDIO
TITLE "Goodbye"
PERFORMER "Andrew Rayel feat. Alexandra Badoi"
FLAGS DCP
INDEX 01 35:36:40
TRACK 10 AUDIO
TITLE "Haunted"
PERFORMER "MaRLo feat. Jano"
FLAGS DCP
INDEX 01 38:36:11
TRACK 11 AUDIO
TITLE "Between Empires"
PERFORMER "Soarsweep"
FLAGS DCP
INDEX 01 42:08:11
TRACK 12 AUDIO
TITLE "Decibels"
PERFORMER "Craig Connelly"
FLAGS DCP
INDEX 01 46:15:63
TRACK 13 AUDIO
TITLE "U (Bryan Kearney Remix)"
PERFORMER "Gareth Emery feat. Bo Bruce"
FLAGS DCP
INDEX 01 49:40:70
TRACK 14 AUDIO
TITLE "Music is More Than Mathematics"
PERFORMER "Protoculture"
FLAGS DCP
INDEX 01 55:18:57
TRACK 15 AUDIO
TITLE "Lekker"
PERFORMER "Max Graham vs Maarten de Jong"
FLAGS DCP
INDEX 01 60:03:16
TRACK 16 AUDIO
TITLE "Destino"
PERFORMER "Markus Schultz"
FLAGS DCP
INDEX 01 64:08:41
TRACK 17 AUDIO
TITLE "Ramelia (Tribute to Amelia)"
PERFORMER "RAM & Susana"
FLAGS DCP
INDEX 01 68:45:66

CD-2:

REM GENRE "Progressive trance"
REM DATE 2014
REM DISCID 09117412
REM COMMENT "ExactAudioCopy v1.0b3"
PERFORMER "VA"
TITLE "A State of Trance 2014 (Mixed by Armin van Buuren) (CD2)"
FILE "VA - A state of Trance 2014 (Mixed by Armin van Buuren) (CD2).flac" WAVE
TRACK 01 AUDIO
TITLE "EIFORYA (Intro Mix)"
PERFORMER "Armin van Buuren & Andrew Rayel"
FLAGS DCP
INDEX 01 00:00:00
TRACK 02 AUDIO
TITLE "The Late Anthem (Way Too Late Mix)"
PERFORMER "Orjan Nilsen"
FLAGS DCP
INDEX 01 05:20:62
TRACK 03 AUDIO
TITLE "Quantum"
PERFORMER "Alexander Popov"
FLAGS DCP
INDEX 01 09:09:44
TRACK 04 AUDIO
TITLE "Phoenix"
PERFORMER "Eximinds"
FLAGS DCP
INDEX 01 12:03:60
TRACK 05 AUDIO
TITLE "Empire Of Hearts"
PERFORMER "Gaia"
FLAGS DCP
INDEX 01 16:12:52
TRACK 06 AUDIO
TITLE "Kingdom Of Dreams"
PERFORMER "RAM"
FLAGS DCP
INDEX 01 20:46:35
TRACK 07 AUDIO
TITLE "Mythology (Dimension Remix)"
PERFORMER "Type 41"
FLAGS DCP
INDEX 01 25:04:19
TRACK 08 AUDIO
TITLE "Visions"
PERFORMER "MaRLo"
FLAGS DCP
INDEX 01 28:05:44
TRACK 09 AUDIO
TITLE "Oblivion"
PERFORMER "Inge Bergmann"
FLAGS DCP
INDEX 01 31:17:43
TRACK 10 AUDIO
TITLE "Carthage"
PERFORMER "Wach"
FLAGS DCP
INDEX 01 35:03:35
TRACK 11 AUDIO
TITLE "New Horizons (A State Of Trance 650 Anthem)"
PERFORMER "Jorn van Deynhoven"
FLAGS DCP
INDEX 01 38:49:72
TRACK 12 AUDIO
TITLE "Stole The Sun (Allen & Envy Remix)"
PERFORMER "Dart Rayne & Yura Moonlight and Katty Heath"
FLAGS DCP
INDEX 01 43:56:03
TRACK 13 AUDIO
TITLE "Marathon (Simon O'Shine Remix)"
PERFORMER "Simon O'Shine & Adam Navel"
FLAGS DCP
INDEX 01 47:12:43
TRACK 14 AUDIO
TITLE "Blackout"
PERFORMER "Allen Watts"
FLAGS DCP
INDEX 01 51:57:59
TRACK 15 AUDIO
TITLE "Siren's Song"
PERFORMER "James Dymond"
FLAGS DCP
INDEX 01 56:08:17
TRACK 16 AUDIO
TITLE "Shine"
PERFORMER "John Askew"
FLAGS DCP
INDEX 01 58:27:27
TRACK 17 AUDIO
TITLE "Save My Night (Allen Watts Remix)"
PERFORMER "Armin van Buuren"
FLAGS DCP
INDEX 01 62:37:59
TRACK 18 AUDIO
TITLE "Ping Pong"
PERFORMER "Armin van Buuren"
FLAGS DCP
INDEX 01 67:43:66

Об альбоме (сборнике)

С каждым днём роль Армина ван Бюрена на мировой электронной танцевальной сцене становится значительнее. За почти 20 лет блистательной карьеры музыка стала для него сакральным таинством, вдохновением и стимулом к жизни. Этим вдохновением он на протяжении 13 лет делится с миллионами своих поклонников через радиошоу A State Of Trance, на основе которого голландский диджей ежегодно готовит одноимённую компиляцию. 2014 год определённо станет для Армина и его фанатов одним из самых ярких в жизни. Во-первых, конечно же, благодаря помпезному празднованию 650-го выпуска A State Of Trance, которое прошло на нескольких континентах. Благодаря прямой трансляции атмосфера праздника наполнила миллионы домов постоянных слушателей радиопрограммы. Кроме того, продолжается большой тур «Armin Only – Intense», приуроченный к выходу пятого альбома голландца и охвативший более 20 городов, включая Москву, Санкт-Петербург, Киев и Минск. По традиции Армин ван Бюрен смиксовал свежие эксклюзивные треки и ремиксы, разделив компиляцию на две части: размеренную «On The Beach» и «In The Club» с более энергичным и танцевальным настроением. Среди горячих новинок его коллаборация с Andrew Rayel «EIFORYA» и новый хит Gaia «Empire Of Hearts», а также работы от пары десятков продюсеров, среди которых Aly & Fila, Andrew Bayer, Gareth Emery, Protoculture, MarLo, Inge Bergmann, Allen Watts, Alexander Popov из Саратова, московский дуэт Eximinds и киевляне Dart Rayne & Yura Moonlight. «A State Of Trance 2014» – это авторский взгляд лучшего диджея планеты на транс нынешнего года.
Яндекс.Метрика
Рейтинг@Mail.ru