РобоКоп / RoboCop (Жозе Падилья / José Padilha) [2014 г., фантастика, боевик, криминал, TeleSynch *PROPER*] Dub + Original (Eng) + Sub (Chi) [hardsub, неотключаемые]

 

Создавать темы 03-Апр-2014 06:47

- -РобоКоп / RoboCop-«У зла нет шансов»- Производство: США , Metro-Goldwyn-Mayer (MGM), Columbia Pictures, Strike Entertainment
Год выпуска: 2014 г.
Жанр: фантастика, боевик, криминал
Продолжительность: 01:48:18
Мировая премьера: 30 января 2014
Российская премьера: 13 февраля 2014, «WDSSPR»
Дата выхода DVD: 5 июня 2014, «Двадцатый Век Фокс СНГ»
Дата выхода Blu-Ray: 5 июня 2014, «Двадцатый Век Фокс СНГ»
Перевод: Профессиональный (полное дублирование) [звук c TS]
Оригинальный аудиопоток: английский-Режиссер: Жозе Падилья / José Padilha
В ролях: Юэль Киннаман, Гари Олдман, Майкл Китон, Сэмюэл Л. Джексон, Эбби Корниш, Джеки Эрл Хейли, Майкл К. Уильямс, Дженнифер Или, Джей Барушель, Марианн Жан-Батист-Описание:-2028 год. Международный конгломерат ОмниКорп лидирует в производстве робототехники. Благодаря разработкам компании Америка успешно побеждает в войнах по всему миру. Но теперь пришло время применить технологию на американской земле. Алекс Мерфи — любящий муж, отец и отличный полицейский, оберегающий порядок в Детройте, получает на службе смертельные ранения. Специалисты ОмниКорпа, используя новейшие разработки, сохраняют ему жизнь. Алекс возвращается на службу в родной город не только с новыми сверхспособностями, но и с проблемами, с которыми не сталкивался ни один живой человек.- -Качество видео: TeleSynch *PROPER*
Контейнер: AVI
Видео кодек: XviD
Аудио кодек: MP3/AC3
Видео: 720x300 (2.40:1), 29.970 fps, XviD build 50 ~1996 kbps avg, 0.31 bit/pixel
Аудио: Русский: 44.100 kHz, MPEG Layer 3, 2 ch, ~319.74 kbps avg [Dub]
Аудио #2: Английский: 48 kHz, AC3 Dolby Digital, 3/2 (L,C,R,l,r) + LFE ch, ~384 kbps [Original]
Cубтитры: Китайские
Формат субтитров: hardsub (неотключаемые)

Media Info

General
Complete name                            : D:\Robokop.2014.Dt.WEBRip.2100Mb.avi
Format                                   : AVI
Format/Info                              : Audio Video Interleave
Format profile                           : OpenDML
File size                                : 2.05 GiB
Duration                                 : 1h 48mn
Overall bit rate                         : 2 708 Kbps
Writing application                      : VirtualDubMod 1.5.10.2 (build 2540/release)
Writing library                          : VirtualDubMod build 2540/release
Video
ID                                       : 0
Format                                   : MPEG-4 Visual
Format profile                           : Advanced [email protected]
Format settings, BVOP                    : 2
Format settings, QPel                    : No
Format settings, GMC                     : No warppoints
Format settings, Matrix                  : Custom
Codec ID                                 : XVID
Codec ID/Hint                            : XviD
Duration                                 : 1h 48mn
Bit rate                                 : 1 982 Kbps
Width                                    : 720 pixels
Height                                   : 300 pixels
Display aspect ratio                     : 2.40:1
Frame rate                               : 29.970 fps
Color space                              : YUV
Chroma subsampling                       : 4:2:0
Bit depth                                : 8 bits
Scan type                                : Progressive
Compression mode                         : Lossy
Bits/(Pixel*Frame)                       : 0.306
Stream size                              : 1.50 GiB (73%)
Writing library                          : XviD 1.2.1 (UTC 2008-12-04)
Audio #1
ID                                       : 1
Format                                   : MPEG Audio
Format version                           : Version 1
Format profile                           : Layer 3
Mode                                     : Joint stereo
Codec ID                                 : 55
Codec ID/Hint                            : MP3
Duration                                 : 1h 48mn
Bit rate mode                            : Constant
Bit rate                                 : 320 Kbps
Channel(s)                               : 2 channels
Sampling rate                            : 44.1 KHz
Compression mode                         : Lossy
Stream size                              : 248 MiB (12%)
Alignment                                : Aligned on interleaves
Interleave, duration                     : 33 ms (1.00 video frame)
Interleave, preload duration             : 522 ms
Audio #2
ID                                       : 2
Format                                   : AC-3
Format/Info                              : Audio Coding 3
Mode extension                           : CM (complete main)
Format settings, Endianness              : Big
Codec ID                                 : 2000
Duration                                 : 1h 48mn
Bit rate mode                            : Constant
Bit rate                                 : 384 Kbps
Channel(s)                               : 6 channels
Channel positions                        : Front: L C R, Side: L R, LFE
Sampling rate                            : 48.0 KHz
Bit depth                                : 16 bits
Compression mode                         : Lossy
Stream size                              : 297 MiB (14%)
Alignment                                : Split accross interleaves
Interleave, duration                     : 33 ms (1.00 video frame)
Interleave, preload duration             : 500 ms

Скриншоты

Яндекс.Метрика
Рейтинг@Mail.ru