Дом. История путешествия / Home (Ян Артус Бертранд / Yann Arthus-Bertrand) [2009 г., документальный, драма, семейный, BDRip] VO + Original (Eng) + Sub (Rus, Eng)

 

Создавать темы 03-Апр-2014 06:42

-Дом. История путешествия / Home- Производство: Франция , Elzévir Films, EuropaCorp, France 2 (FR2)
Жанр: документальный, драма, семейный
Год выпуска: 2009 г.
Продолжительность: 01:58:25
Мировая премьера: 3 июня 2009
Российская премьера: 5 июня 2009
Дата выхода DVD: 22 февраля 2011, «Кармен Видео»
Перевод: Любительский (одноголосый, закадровый)
Оригинальный аудиопоток: английский-Режиссер: Ян Артус Бертранд / Yann Arthus-Bertrand
В ролях: Ян Артус Бертранд, Гленн Клоуз, Жак Гамблен-Описание:-Фильм демонстрирует нам красоту планеты и последствия разрушений, нанесенных деятельностью человека. Незаживающие шрамы, нанесенные Земле промышленными производствами, последствия войн, экологических катастроф, раскрывают зрителю реальную ситуацию на планете.- -Качество видео: BDRip
Контейнер: MKV
Видео кодек: AVC
Аудио кодек: AC3
Видео: AVC, 1920x1080 (16:9), 4 516 Kbps, 23.976 fps
Аудио: Russian: AC3, 384 Kbps, 6 ch, 48.0 KHz [VO]
Аудио #2: English: AC3, 384 Kbps, 6 ch, 48.0 KHz [Original]
Cубтитры: Русские, английские

Media Info

General
Unique ID                                : 219776462929502068153787011666796782566 (0xA5576837E2AB4CC4ADC4FD9E3CC6A3E6)
Complete name                            : D:\Home(2009)BDRip-F.HD.mkv
Format                                   : Matroska
Format version                           : Version 2
File size                                : 4.37 GiB
Duration                                 : 1h 58mn
Overall bit rate                         : 5 286 Kbps
Encoded date                             : UTC 2012-04-30 08:08:42
Writing application                      : mkvmerge v5.4.0 ('Piper') built on Mar 10 2012 13:34:39
Writing library                          : libebml v1.2.3 + libmatroska v1.3.0
Video
ID                                       : 1
Format                                   : AVC
Format/Info                              : Advanced Video Codec
Format profile                           : [email protected]
Format settings, CABAC                   : Yes
Format settings, ReFrames                : 4 frames
Codec ID                                 : V_MPEG4/ISO/AVC
Duration                                 : 1h 58mn
Bit rate                                 : 4 516 Kbps
Width                                    : 1 920 pixels
Height                                   : 1 080 pixels
Display aspect ratio                     : 16:9
Frame rate mode                          : Constant
Frame rate                               : 23.976 fps
Color space                              : YUV
Chroma subsampling                       : 4:2:0
Bit depth                                : 8 bits
Scan type                                : Progressive
Bits/(Pixel*Frame)                       : 0.091
Stream size                              : 3.65 GiB (83%)
Writing library                          : x264 core 122 r2184 5c85e0a
Encoding settings                        : cabac=1 / ref=4 / deblock=1:-3:-3 / analyse=0x3:0x133 / me=umh / subme=10 / psy=1 / psy_rd=0.90:0.10 / mixed_ref=1 / me_range=32 / chroma_me=1 / trellis=2 / 8x8dct=1 / cqm=0 / deadzone=21,11 / fast_pskip=0 / chroma_qp_offset=-3 / threads=6 / sliced_threads=0 / nr=0 / decimate=1 / interlaced=0 / bluray_compat=0 / constrained_intra=0 / bframes=8 / b_pyramid=2 / b_adapt=2 / b_bias=0 / direct=3 / weightb=1 / open_gop=0 / weightp=2 / keyint=240 / keyint_min=23 / scenecut=40 / intra_refresh=0 / rc=2pass / mbtree=0 / bitrate=4516 / ratetol=1.0 / qcomp=0.70 / qpmin=0 / qpmax=69 / qpstep=4 / cplxblur=20.0 / qblur=0.5 / ip_ratio=1.40 / pb_ratio=1.30 / aq=2:0.80
Language                                 : English
Default                                  : Yes
Forced                                   : No
Color primaries                          : BT.709
Transfer characteristics                 : BT.709
Matrix coefficients                      : BT.709
Audio #1
ID                                       : 2
Format                                   : AC-3
Format/Info                              : Audio Coding 3
Mode extension                           : CM (complete main)
Format settings, Endianness              : Big
Codec ID                                 : A_AC3
Duration                                 : 1h 58mn
Bit rate mode                            : Constant
Bit rate                                 : 384 Kbps
Channel(s)                               : 6 channels
Channel positions                        : Front: L C R, Side: L R, LFE
Sampling rate                            : 48.0 KHz
Bit depth                                : 16 bits
Compression mode                         : Lossy
Stream size                              : 325 MiB (7%)
Language                                 : Russian
Default                                  : Yes
Forced                                   : No
Audio #2
ID                                       : 3
Format                                   : AC-3
Format/Info                              : Audio Coding 3
Mode extension                           : CM (complete main)
Format settings, Endianness              : Big
Codec ID                                 : A_AC3
Duration                                 : 1h 58mn
Bit rate mode                            : Constant
Bit rate                                 : 384 Kbps
Channel(s)                               : 6 channels
Channel positions                        : Front: L C R, Side: L R, LFE
Sampling rate                            : 48.0 KHz
Bit depth                                : 16 bits
Compression mode                         : Lossy
Stream size                              : 325 MiB (7%)
Language                                 : English
Default                                  : No
Forced                                   : No
Text #1
ID                                       : 4
Format                                   : UTF-8
Codec ID                                 : S_TEXT/UTF8
Codec ID/Info                            : UTF-8 Plain Text
Language                                 : Russian
Default                                  : Yes
Forced                                   : No
Text #2
ID                                       : 5
Format                                   : UTF-8
Codec ID                                 : S_TEXT/UTF8
Codec ID/Info                            : UTF-8 Plain Text
Language                                 : English
Default                                  : No
Forced                                   : No
Menu
00:00:00.000                             : en:Chapter 01
00:03:55.235                             : en:Chapter 02
00:08:50.029                             : en:Chapter 03
00:11:11.504                             : en:Chapter 04
00:15:32.222                             : en:Chapter 05
00:19:59.531                             : en:Chapter 06
00:24:47.444                             : en:Chapter 07
00:30:28.201                             : en:Chapter 08
00:34:40.119                             : en:Chapter 09
00:42:13.572                             : en:Chapter 10
00:46:55.521                             : en:Chapter 11
00:51:48.438                             : en:Chapter 12
00:58:24.501                             : en:Chapter 13
01:02:41.632                             : en:Chapter 14
01:06:43.082                             : en:Chapter 15
01:11:08.347                             : en:Chapter 16
01:16:43.181                             : en:Chapter 17
01:22:42.040                             : en:Chapter 18
01:27:28.159                             : en:Chapter 19
01:33:28.102                             : en:Chapter 20
01:37:40.980                             : en:Chapter 21
01:40:36.405                             : en:Chapter 22
01:44:25.175                             : en:Chapter 23
01:51:26.930                             : en:Chapter 24
01:58:25.056                             : en:Chapter 25

Скриншоты

Яндекс.Метрика
Рейтинг@Mail.ru