Приключения мистера Пибоди и Шермана / Mr. Peabody & Sherman (Роб Минкофф / Rob Minkoff) [2014 г., мультфильм, фантастика, комедия, приключения, семейный, TS] Dub

 

Создавать темы 03-Апр-2014 06:31

--Приключения мистера Пибоди и Шермана / Mr. Peabody & Sherman--«Наперегонки с историей»- -Производство: США
Год выпуска: 2014 г.
Жанр: мультфильм, фантастика, комедия, приключения, семейный
Продолжительность: 01:22:31--Мировая премьера: 7 февраля 2014
Российская премьера: 6 марта 2014, «Двадцатый Век Фокс СНГ»
Релиз на DVD: 14 августа 2014, «Двадцатый Век Фокс СНГ»
Релиз на Blu-Ray: 14 августа 2014, «Двадцатый Век Фокс СНГ»--Перевод: Профессиональный (полное дублирование)--Режиссер: Роб Минкофф / Rob Minkoff--В ролях: Тай Бурелл, Макс Чарльз, Эриель Винтер, Стефен Колбер, Лесли Манн, Эллисон Дженни, Стэнли Туччи, Том МакГрат, Лэйк Белл, Зак Каллисон--Описание: Мистер Пибоди — бизнесмен, изобретатель, ученый, нобелевский лауреат, гурман, двукратный олимпийский чемпион и гений… который кроме всего прочего является собакой. При помощи своего самого неординарного изобретения — машины ВЕЙБЕК — мистер Пибоди и его приемный сын Шерман мгновенно перемещаются в прошлое, где становятся свидетелями самых важных исторических событий и общаются с известными историческими персонажами. Но когда Шерман нарушает правила путешествий во времени, нашим героям приходится вновь отправиться в путь — на сей раз с целью восстановления цепи исторических событий и спасения будущего. Кроме того, мистеру Пибоди предстоит справиться с самой сложной для него задачей — стать настоящим отцом для Шермана.-- --Качество видео: TS
Контейнер: AVI
Видео кодек: XviD
Аудио кодек: MP3
Видео: 720x304 (2.37:1), 23.976 fps, XviD build 50 ~2043 kbps avg, 0.39 bit/pixel
Аудио: 44.100 kHz, MPEG Layer 3, 2 ch, ~320.00 kbps avg
Cубтитры: отсутствуют

Media Info

Общее
Полное имя : H:\p13\Mr.Pibody.i.Sherman.2014.D.TS.PROPER.1400MB_[pirat.ca].avi
Формат : AVI
Формат/Информация : Audio Video Interleave
Размер файла : 1,37 Гбайт
Продолжительность : 1 ч. 22 м.
Общий поток : 2373 Кбит/сек
Программа кодирования : VirtualDubMod 1.5.10.2 (build 2540/release)
Библиотека кодирования : VirtualDubMod build 2540/release
Видео
Идентификатор : 0
Формат : MPEG-4 Visual
Профиль формата : Advanced [email protected]
Параметр BVOP формата : 2
Параметр QPel формата : Нет
Параметр GMC формата : Без точки перехода
Параметр матрицы формата : Default (MPEG)
Идентификатор кодека : XVID
Идентификатор кодека/Подсказка : XviD
Продолжительность : 1 ч. 22 м.
Битрейт : 2044 Кбит/сек
Ширина : 720 пикселей
Высота : 304 пикселя
Соотношение сторон : 2,35:1
Частота кадров : 23,976 кадра/сек
Цветовое пространство : YUV
Субдискретизация насыщенности : 4:2:0
Битовая глубина : 8 бит
Тип развёртки : Прогрессивная
Метод сжатия : С потерями
Бит/(Пиксели*Кадры) : 0.389
Размер потока : 1,18 Гбайт (86%)
Библиотека кодирования : XviD 1.2.1 (UTC 2008-12-04)
Аудио
Идентификатор : 1
Формат : MPEG Audio
Версия формата : Version 1
Профиль формата : Layer 3
Режим : Joint stereo
Идентификатор кодека : 55
Идентификатор кодека/Подсказка : MP3
Продолжительность : 1 ч. 22 м.
Вид битрейта : Постоянный
Битрейт : 320 Кбит/сек
Каналы : 2 канала
Частота : 48,0 КГц
Метод сжатия : С потерями
Размер потока : 189 Мбайт (13%)
Выравнивание : Соединение по промежуткам
Продолжительность промежутка : 42 мс. (1,00 видеокадр)
Время предзагрузки промежутка : 504 мс.

Скриншоты

Трейлер
Яндекс.Метрика
Рейтинг@Mail.ru