Совместная поездка / Ride Along (Тим Стори / Tim Story) [2014 г., боевик, комедия, WEB-DLRip 720p] VO [qwerty] + Original (Eng) + Sub (Eng, Fre, Spa)

 

Создавать темы 03-Апр-2014 06:28

--Совместная поездка / Ride Along--«Propose to this cop's sister? Rookie mistake»-- Производство: США, Cube Vision, LBI Entertainment, Rainforest Films, Universal Pictures
Год выпуска: 2014 г.
Жанр: боевик, комедия
Продолжительность: 01:39:32--Мировая премьера: 17 января 2014--Перевод: Любительский (одноголосый закадровый) [qwerty]
Оригинальный аудиопоток: английский--Режиссер: Тим Стори / Tim Story--В ролях: Кевин Харт, Айс Кьюб, Джон Легуизэмо, Брюс Макгилл, Тика Самптер, Брайан Коллен, Лоренс Фишбёрн, Драгош Букур, Эрик Бенсон, Джей Фэро--Описание: Охранник Бен отправляется вместе со своим шурином Джеймсом в патруль по Атланте, чтобы доказать, что он достоин жениться на Анджеле, сестре Джеймса.--- --Качество видео: WEB-DLRip 720p
Контейнер: MKV
Видео кодек: AVC
Аудио кодек: AC3
Видео: AVC, 1280x532 (2,40:1), 23,976 fps, 4146 Kbps (0.254 bit/pixel)
Аудио 1: 48 kHz, AC3 Dolby Digital, 2/0 (L,R) ch, ~192 kbps RUS VO [qwerty]
Аудио 2: 48 kHz, AC3 Dolby Digital, 3/2 (L,C,R,l,r) + LFE ch, ~384 kbps ENG
Cубтитры: English, French, Spanish

Media Info

Общее
Уникальный идентификатор : 213831367453232253903041519135463688579 (0xA0DE6C618038337C87184567AE8DC983)
Полное имя : H:\Torrent2\Sovmestnaya.poezdka.2014.WEBDL720p_[pirat.ca].mkv
Формат : Matroska
Версия формата : Version 4 / Version 2
Размер файла : 3,35 Гбайт
Продолжительность : 1 ч. 39 м.
Общий поток : 4818 Кбит/сек
Дата кодирования : UTC 2014-04-01 14:05:56
Программа кодирования : mkvmerge v6.5.0 ('Isn't she lovely') built on Oct 20 2013 12:50:05
Библиотека кодирования : libebml v1.3.0 + libmatroska v1.4.1
Видео
Идентификатор : 1
Формат : AVC
Формат/Информация : Advanced Video Codec
Профиль формата : [email protected]
Параметр CABAC формата : Нет
Параметр ReFrames формата : 2 кадра
Идентификатор кодека : V_MPEG4/ISO/AVC
Продолжительность : 1 ч. 39 м.
Битрейт : 4146 Кбит/сек
Ширина : 1280 пикселей
Высота : 532 пикселя
Соотношение сторон : 2,40:1
Режим частоты кадров : Постоянный
Частота кадров : 23,976 кадра/сек
Цветовое пространство : YUV
Субдискретизация насыщенности : 4:2:0
Битовая глубина : 8 бит
Тип развёртки : Прогрессивная
Бит/(Пиксели*Кадры) : 0.254
Размер потока : 2,88 Гбайт (86%)
Язык : English
Default : Да
Forced : Нет
Основные цвета : BT.709
Характеристики трансфера : BT.709
Коэффициенты матрицы : BT.709
Аудио #1
Идентификатор : 2
Формат : AC-3
Формат/Информация : Audio Coding 3
Расширение режима : CM (complete main)
Параметр Endianness формата : Big
Идентификатор кодека : A_AC3
Продолжительность : 1 ч. 39 м.
Вид битрейта : Постоянный
Битрейт : 192 Кбит/сек
Каналы : 2 канала
Расположение каналов : Front: L R
Частота : 48,0 КГц
Битовая глубина : 16 бит
Метод сжатия : С потерями
Размер потока : 137 Мбайт (4%)
Язык : Russian
Default : Да
Forced : Нет
Аудио #2
Идентификатор : 3
Формат : AC-3
Формат/Информация : Audio Coding 3
Расширение режима : CM (complete main)
Параметр Endianness формата : Big
Идентификатор кодека : A_AC3
Продолжительность : 1 ч. 39 м.
Вид битрейта : Постоянный
Битрейт : 384 Кбит/сек
Каналы : 6 каналов
Расположение каналов : Front: L C R, Side: L R, LFE
Частота : 48,0 КГц
Битовая глубина : 16 бит
Метод сжатия : С потерями
Размер потока : 273 Мбайт (8%)
Язык : English
Default : Нет
Forced : Нет
Текст #1
Идентификатор : 4
Формат : UTF-8
Идентификатор кодека : S_TEXT/UTF8
Идентификатор кодека/Информация : UTF-8 Plain Text
Язык : English
Default : Нет
Forced : Нет
Текст #2
Идентификатор : 5
Формат : UTF-8
Идентификатор кодека : S_TEXT/UTF8
Идентификатор кодека/Информация : UTF-8 Plain Text
Язык : French
Default : Нет
Forced : Нет
Текст #3
Идентификатор : 6
Формат : UTF-8
Идентификатор кодека : S_TEXT/UTF8
Идентификатор кодека/Информация : UTF-8 Plain Text
Язык : Spanish
Default : Нет
Forced : Нет
Меню
00:00:00.000 : en:1
00:05:11.000 : en:2
00:10:39.000 : en:3
00:14:42.000 : en:4
00:19:48.000 : en:5
00:25:05.000 : en:6
00:31:18.000 : en:7
00:35:48.000 : en:8
00:40:53.000 : en:9
00:44:32.000 : en:10
00:50:42.000 : en:11
00:54:51.000 : en:12
01:00:02.000 : en:13
01:06:13.000 : en:14
01:11:47.000 : en:15
01:18:46.000 : en:16
01:22:55.000 : en:17
01:26:29.000 : en:18
01:30:11.000 : en:19
01:35:29.000 : en:20

Скриншоты

Трейлер
Яндекс.Метрика
Рейтинг@Mail.ru