Волк с Уолл-стрит / The Wolf of Wall Street (Мартин Скорсезе / Martin Scorsese) [2013 г., драма, комедия, криминал, биография, BDRip, 1080p] Dub (Line) + DVO (Пираты) + VO (5 Плюх Д.Денщиков) + Sub (Rus, Eng) + Original (Eng)

 

Создавать темы 03-Апр-2014 06:12

-Волк с Уолл-стрит / The Wolf of Wall Street-- Производство: США Red Granite Pictures, Sikelia Productions, Appian Way
Год выпуска: 2013 г.
Жанр: драма, комедия, криминал, биография
Продолжительность: 02:59:52
Мировая премьера: 25 декабря 2013
Российская премьера: 6 февраля 2014, «West»
Перевод: Профессиональный (полное дублирование) [Чистый звук (студия "Пифагор")]
Перевод 2: Любительский (двухголосый, закадровый) [Пиратская студия]
Перевод 3: Любительский (одноголосый, закадровый) [ Дмитрий Деньщиков (5 Плюх) ]
Оригинальный аудиопоток: английский
Режиссер: Мартин Скорсезе / Martin Scorsese-В ролях: Леонардо ДиКаприо, Джона Хилл, Марго Робби, Мэттью МакКонахи, Кайл Чандлер, Роб Райнер, Джон Фавро, Жан Дюжарден, Ши Уигхэм, Спайк Джонс-Описание: жордан Белфорт основал одну из крупнейших брокерских контор в 1987 году, но десять лет спустя был осужден за отмывание денег и ряд прочих финансовых преступлений. Он справился с алкогольной и наркотической зависимостью, выработанной за время махинаций на Уолл-стрит, написал две книги и теперь читает лекции о том, как достичь успеха.- Качество видео: BDRip
Контейнер: MKV
Стандарт разрешения: 1080p
Видео кодек:_MPEG4 (Н 264)
Аудио кодек: AC3
Видео: MPEG4/AVC (H 264), 7542 Кбит/сек, 1920x800 (2.40:1), 23,976 fps, 0.205 bit / pix
Аудио: Rus: 48kHz, AC3, 2 канала, 384 Кбит/сек Dub (Line)
Аудио 2: Rus: 48kHz, AC3, 6 ch, 640 Кбит/сек (Пиратская студия)
Аудио 3: Rus: 48kHz, AC3, 6 ch, 448 Кбит/сек VO ( Дмитрий Деньщиков (5 Плюх) - не нормативная лексика)
Аудио 4: Eng: 48kHz, AC3, 6 ch, 640 Кбит/сек (Original)
Cубтитры: Русские (не нормативная лексика), английские (отключаемые) Навигация по главам: Есть

Media Info

General
Complete name : W:\The Wolf.of.Wall.Street.2013.BDRip.1080p.HDR.mkv
Format : Matroska
File size : 12.1 GiB
Duration : 2h 59mn
Overall bit rate : 9 656 Kbps
Encoded date : UTC 2014-04-01 10:23:00
Writing application : mkvmerge v6.5.0 ('Isn't she lovely') built on Oct 20 2013 12:50:05
Writing library : libebml v1.3.0 + libmatroska v1.4.1
Cover : Yes
Video
ID : 1
Format : AVC
Format/Info : Advanced Video Codec
Format profile : [email protected]
Format settings, CABAC : Yes
Format settings, ReFrames : 5 frames
Format settings, GOP : N=15
Muxing mode : Container [email protected]
Codec ID : V_MPEG4/ISO/AVC
Duration : 2h 59mn
Bit rate : 7 542 Kbps
Width : 1 920 pixels
Height : 800 pixels
Display aspect ratio : 2.40:1
Frame rate : 23.976 fps
Color space : YUV
Chroma subsampling : 4:2:0
Bit depth : 8 bits
Scan type : Progressive
Bits/(Pixel*Frame) : 0.205
Stream size : 9.24 GiB (76%)
Writing library : x264 core 142 r2389+41 02cb608 tMod [[email protected] X86_64]
Encoding settings : cabac=1 / ref=5 / deblock=1:-3:-3 / analyse=0x3:0x133 / me=umh / subme=11 / psy=1 / fade_compensate=0.00 / psy_rd=1.00:0.00 / mixed_ref=1 / me_range=32 / chroma_me=1 / trellis=2 / 8x8dct=1 / cqm=0 / deadzone=21,11 / fast_pskip=0 / chroma_qp_offset=-2 / threads=12 / lookahead_threads=1 / sliced_threads=0 / nr=0 / decimate=0 / interlaced=0 / bluray_compat=0 / constrained_intra=0 / fgo=0 / bframes=8 / b_pyramid=2 / b_adapt=2 / b_bias=0 / direct=3 / weightb=1 / open_gop=0 / weightp=2 / keyint=240 / keyint_min=23 / scenecut=40 / intra_refresh=0 / rc=2pass / mbtree=0 / bitrate=7542 / ratetol=1.0 / qcomp=0.60 / qpmin=0:0:0 / qpmax=69:69:69 / qpstep=4 / cplxblur=20.0 / qblur=0.5 / ip_ratio=1.40 / pb_ratio=1.30 / aq=2:0.80 / aq-sensitivity=10.00 / aq-factor=1.00:1.00:1.00 / aq2=0 / aq3=0
Audio #1
ID : 2
Format : AC-3
Format/Info : Audio Coding 3
Mode extension : CM (complete main)
Codec ID : A_AC3
Duration : 2h 59mn
Bit rate mode : Constant
Bit rate : 384 Kbps
Channel(s) : 2 channels
Channel positions : Front: L R
Sampling rate : 48.0 KHz
Bit depth : 16 bits
Stream size : 494 MiB (4%)
Title : Дубляж[Line]
Language : Russian
Audio #2
ID : 3
Format : AC-3
Format/Info : Audio Coding 3
Mode extension : CM (complete main)
Codec ID : A_AC3
Duration : 2h 59mn
Bit rate mode : Constant
Bit rate : 640 Kbps
Channel(s) : 6 channels
Channel positions : Front: L C R, Side: L R, LFE
Sampling rate : 48.0 KHz
Bit depth : 16 bits
Stream size : 823 MiB (7%)
Title : Пираты
Language : Russian
Audio #3
ID : 4
Format : AC-3
Format/Info : Audio Coding 3
Mode extension : CM (complete main)
Codec ID : A_AC3
Duration : 2h 59mn
Bit rate mode : Constant
Bit rate : 448 Kbps
Channel(s) : 6 channels
Channel positions : Front: L C R, Side: L R, LFE
Sampling rate : 48.0 KHz
Bit depth : 16 bits
Stream size : 576 MiB (5%)
Title : Дмитрий Деньщиков (5 Плюх)
Language : Russian
Audio #4
ID : 5
Format : AC-3
Format/Info : Audio Coding 3
Mode extension : CM (complete main)
Codec ID : A_AC3
Duration : 2h 59mn
Bit rate mode : Constant
Bit rate : 640 Kbps
Channel(s) : 6 channels
Channel positions : Front: L C R, Side: L R, LFE
Sampling rate : 48.0 KHz
Bit depth : 16 bits
Stream size : 823 MiB (7%)
Title : Original
Text #1
ID : 6
Format : UTF-8
Codec ID : S_TEXT/UTF8
Codec ID/Info : UTF-8 Plain Text
Title : Full Notabenoid
Language : Russian
Text #2
ID : 7
Format : UTF-8
Codec ID : S_TEXT/UTF8
Codec ID/Info : UTF-8 Plain Text
Title : Full
Text #3
ID : 8
Format : UTF-8
Codec ID : S_TEXT/UTF8
Codec ID/Info : UTF-8 Plain Text
Title : SDH
Menu
00:00:00.000 : en:G01
00:07:55.934 : en:G02
00:14:17.857 : en:G03
00:21:31.415 : en:G04
00:32:08.093 : en:G05
00:40:14.495 : en:G06
00:48:33.577 : en:G07
00:55:21.777 : en:G08
01:01:56.046 : en:G09
01:07:00.475 : en:G10
01:11:28.910 : en:G11
01:19:49.868 : en:G12
01:29:06.883 : en:G13
01:37:47.403 : en:G14
01:45:11.931 : en:G15
01:54:39.998 : en:G16
02:03:20.184 : en:G17
02:07:28.015 : en:G18
02:17:12.850 : en:G19
02:25:25.467 : en:G20
02:32:08.619 : en:G21
02:36:38.723 : en:G22
02:44:19.266 : en:G23
02:53:04.291 : en:G24

Скриншоты

Яндекс.Метрика
Рейтинг@Mail.ru