[ Сегодня на трекере фрилич! Идет свободное скачивание без начисления Download ]

Горько! (Жора Крыжовников) [2013 г., комедия, DVD5 (сжатый), PAL]

 

Создавать темы 03-Апр-2014 05:42

-Горько!-«Главное не нажраться»- Производство: Россия, Базелевс Продакшн, Lunapark
Жанр: комедия
Год выпуска: 2013 г.
Продолжительность: 01:36:51
Российская премьера: 24 октября 2013, «Bazelevs Distribution»
Дата выхода DVD: 5 декабря 2013, «Флагман-Трейд»
Дата выхода Blu-Ray: 23 января 2014, «Флагман-Трейд»-Режиссер: Жора Крыжовников
В ролях: Сергей Светлаков, Юлия Александрова, Егор Корешков, Ян Цапник, Данила Якушев, Юлия Сулес, Елена Валюшкина, Александр Паль, Сергей Лавыгин, Анастасия Добахова, Валентина Мазунина, Владимир Тебенко, Евгений Кушпель, Максим Казаков-Описание:-Прогрессивные и талантливые Наташа и Рома мечтают о европейской свадьбе на берегу моря… но у Наташиного отчима заготовлен другой сценарий. Грубый чиновник городской администрации рассматривает торжество как трамплин для собственной карьеры и стремится устроить все «как надо». Молодых ждет незабываемый вечер в ресторане «Золотой» с полным набором занудных обрядов. Не в силах бороться, ребята решают провести свадьбу своей мечты в секрете от консервативных родственников. Но по нелепой случайности оба торжества сливаются воедино.-КиноПоиск-Качество видео: DVD5 (сжатый)
Контейнер: DVD Video
Видео кодек: MPEG2
Аудио кодек: AC3
Видео: 720x576 (16:9) VBR, Auto Letterboxed, 5887 Kbps, 25.000 fps, 0.568 bit/pixel
Формат DVD: PAL
Аудио: Russian: Dolby AC3, 448 Kbps, 6 ch, 48.0 KHz
Cубтитры: отсутствуют

Media Info

General
Complete name                            : D:\Горько! DVD5\VIDEO_TS\VTS_01_2.VOB
Format                                   : MPEG-PS
File size                                : 1 024 MiB
Duration                                 : 22mn 8s
Overall bit rate mode                    : Variable
Overall bit rate                         : 6 464 Kbps
Video
ID                                       : 224 (0xE0)
Format                                   : MPEG Video
Format version                           : Version 2
Format profile                           : [email protected]
Format settings, BVOP                    : Yes
Format settings, Matrix                  : Custom
Format settings, GOP                     : Variable
Duration                                 : 22mn 8s
Bit rate mode                            : Variable
Bit rate                                 : 5 887 Kbps
Maximum bit rate                         : 9 000 Kbps
Width                                    : 720 pixels
Height                                   : 576 pixels
Display aspect ratio                     : 16:9
Frame rate                               : 25.000 fps
Standard                                 : PAL
Color space                              : YUV
Chroma subsampling                       : 4:2:0
Bit depth                                : 8 bits
Scan type                                : Interlaced
Scan order                               : Bottom Field First
Compression mode                         : Lossy
Bits/(Pixel*Frame)                       : 0.568
Time code of first frame                 : 00:22:55:00
Time code source                         : Group of pictures header
Stream size                              : 932 MiB (91%)
Audio
ID                                       : 189 (0xBD)-128 (0x80)
Format                                   : AC-3
Format/Info                              : Audio Coding 3
Mode extension                           : CM (complete main)
Format settings, Endianness              : Big
Muxing mode                              : DVD-Video
Duration                                 : 22mn 8s
Bit rate mode                            : Constant
Bit rate                                 : 448 Kbps
Channel(s)                               : 6 channels
Channel positions                        : Front: L C R, Side: L R, LFE
Sampling rate                            : 48.0 KHz
Bit depth                                : 16 bits
Compression mode                         : Lossy
Delay relative to video                  : -712ms
Stream size                              : 71.0 MiB (7%)

DVDInfo

Title: Горько! DVD5
Size: 4.36 Gb ( 4 567 626,00 KBytes ) - DVD-5
Enabled regions: 1, 2, 3, 4, 5, 6, 7, 8
VTS_01 :
Play Length: 01:36:51
Video: PAL 16:9 (720x576) VBR, Auto Letterboxed
Audio:
Russian (Dolby AC3, 6 ch)
VTS_02 :
Play Length: 00:00:00
Video: PAL 16:9 (720x576) VBR, Auto Letterboxed
Audio:
Russian (Dolby AC3, 2 ch)
* Menus Information *
VIDEO_TS Menu
Video:
PAL 16:9 (720x576) VBR
Auto Letterboxed
Audio:
Not specified (Dolby AC3, 2 ch)
Russian Language Unit :
Title Menu
VTS_01 Menu
Video:
PAL 16:9 (720x576) VBR
Auto Letterboxed
Audio:
Not specified (Dolby AC3, 2 ch)
Russian Language Unit :
Root Menu
VTS_02 Menu
Video:
NTSC 4:3 (720x480) VBR
Auto Pan&Scan, Auto Letterboxed
Russian Language Unit :
Root Menu

Скриншоты меню

Скриншоты

Яндекс.Метрика
Рейтинг@Mail.ru