Кинотеатр Пени Ужасной / The Penny Dreadful Picture Show (Ник Эверхарт, Ли Скотт, Элиза Свенсон / Nick Everhart, Leigh Scott, Eliza Swenson) [2013 г., Ужасы, WEB-DLRip] DVO [DeadSno & den904] + Original (Eng)

 

Создавать темы 03-Апр-2014 05:36

-Кинотеатр Пени Ужасной / The Penny Dreadful Picture Show-- Производство: США, Imaginarium
Год выпуска: 2013 г.
Жанр: Ужасы
Продолжительность: 01:42:14
Мировая премьера: 8 октября 2013
Перевод: Любительский (двухголосый, закадровый) [DeadSno & den904]
Оригинальный аудиопоток: английский
Режиссер: Ник Эверхарт, Ли Скотт, Элиза Свенсон / Nick Everhart, Leigh Scott, Eliza Swenson-В ролях: Элиза Свенсон, Крэйг Блэр, Теодор Булукос, Тайлер Эллиот Бурк, Джеффри Комбс, Лиз Дуглас, Коллин Галиэн, Диллон Джеизелэерс, Лаки Грецинджер, Сид Хэйг, Джош Хэммонд, Тайлер Холлинджер, Алексис Яконо, Бенджамин Кейнс и др.-Описание: Добро пожаловать в необычный кинотеатр, где Ужасная Пени вместе с двумя своими друзьями — Мертвецом Недом и Оборотнем покажет три страшные сказки, произошедшие в разные десятилетия. Вас ждет незабываемое, восхитительное путешествие по истории кино и самым темным ночным кошмарам…
- -

Качество видео: WEB-DLRip
Контейнер: AVI
Видео кодек: XviD
Аудио кодек: AC3
Видео: 720 x 400, 1305 kbps, 0.189 Bits/Pixel, 23.976 fps
Аудио 1: AC3 192 kbps (2ch), 48,0 КГц, 16 бит [Русский, DVO]
Аудио 2: AC3 384 kbps (2ch), 48,0 КГц, 16 бит [Английский]
Cубтитры: отсутствуют

Media Info

General
Format : AVI
Format/Info : Audio Video Interleave
File size : 1.35 GiB
Duration : 1h 42mn
Overall bit rate : 1 895 Kbps
Writing application : VirtualDubModRus 1.5.10.2 (build 2542/release)
Writing library : VirtualDubMod build 2542/release
Video
ID : 0
Format : MPEG-4 Visual
Format profile : Advanced [email protected]
Format settings, BVOP : 2
Format settings, QPel : No
Format settings, GMC : No warppoints
Format settings, Matrix : Default (MPEG)
Codec ID : XVID
Codec ID/Hint : XviD
Duration : 1h 42mn
Bit rate : 1 305 Kbps
Width : 720 pixels
Height : 400 pixels
Display aspect ratio : 16:9
Frame rate : 23.976 fps
Color space : YUV
Chroma subsampling : 4:2:0
Bit depth : 8 bits
Scan type : Progressive
Compression mode : Lossy
Bits/(Pixel*Frame) : 0.189
Stream size : 954 MiB (69%)
Writing library : XviD 64
Audio #1
ID : 1
Format : AC-3
Format/Info : Audio Coding 3
Mode extension : CM (complete main)
Format settings, Endianness : Big
Codec ID : 2000
Duration : 1h 42mn
Bit rate mode : Constant
Bit rate : 192 Kbps
Channel(s) : 2 channels
Channel positions : Front: L R
Sampling rate : 48.0 KHz
Bit depth : 16 bits
Compression mode : Lossy
Stream size : 140 MiB (10%)
Alignment : Split accross interleaves
Interleave, duration : 42 ms (1.00 video frame)
Interleave, preload duration : 500 ms
Audio #2
ID : 2
Format : AC-3
Format/Info : Audio Coding 3
Mode extension : CM (complete main)
Format settings, Endianness : Big
Codec ID : 2000
Duration : 1h 42mn
Bit rate mode : Constant
Bit rate : 384 Kbps
Channel(s) : 2 channels
Channel positions : Front: L R
Sampling rate : 48.0 KHz
Bit depth : 16 bits
Compression mode : Lossy
Stream size : 281 MiB (20%)
Alignment : Split accross interleaves
Interleave, duration : 42 ms (1.00 video frame)
Interleave, preload duration : 500 ms

Скриншоты

Яндекс.Метрика
Рейтинг@Mail.ru