[ Сегодня на трекере фрилич! Идет свободное скачивание без начисления Download ]

Интеллект / Искусственный интеллект / Разведка / Intelligence (US) (Сезон: 1 / Серии: 1-13 из 13) (Тим Хантер, Олрик Райли, Роб Бэйли) [2013 - 2014 гг., Фантастика, боевик, WEB-DL 720p] MVO (BaibaKo) + Original [Обновляемая]

 

Создавать темы 03-Апр-2014 05:27

Интеллект / Искусственный интеллект / Разведка / Intelligence (US)«Вам и не снилось, что в его голове» -Год выпуска: 2013 - 2014 гг.
Страна: США, ABC Studios, CBS Television Studios, Vinson Films
Жанр: Фантастика, боевик
Продолжительность: 13 серий по ~00:43:30
Перевод: Профессиональный (многоголосый закадровый) BaibaKo
Русские субтитры: нет-Релиз:
Авторы перевода: Татьяна Saavick
Озвучка: Светлана Доманова, Ольга Мотрич, Владимир Курдов и Сергей Корчак-Режиссёр: Тим Хантер, Олрик Райли, Роб Бэйли-В ролях: Джош Холлоуэй, Меган Ори, Марж Хелгенбергер, Майкл Рэди, Джеймс Мартинес, Лэнс Реддик, Ронни Джин Блевинс, Джон Костри, Lucas a Davis, Кэс Анвар-Описание: Гэбриэл - идеальный разведчик - боец спецслужб с интегрированным в мозг суперкомпьютером. Благодаря этому чипу Гэбриэл становится единственным в мире человеком, способным напрямую подключать своё сознание к глобальной информационной сети и имеет безграничный доступ к Интернету, Wi-Fi, телефонной связи и спутниковому наблюдению. Он может взломать любую базу данных и любой шифр, чтобы защитить Соединенные Штаты. Кибернетическое командование США закрепляет агента секретной службы Райли Нил за Гэбриэлом, чтобы защитить его от внешних угроз и контролировать его склонность к безрассудству, неуважение к правилам и непредсказуемое поведение. Будучи первым живым суперкомпьютером Гэбриэл представляет собой самый ценный технологический актив, когда либо изобретенный в стране, а так же секретное оружие США.-Качество: WEB-DL 720p
Формат: MKV
Видео кодек: H.264
Аудио кодек: AC3
Видео: AVС, 1280x720 (16:9), 23.976 fps, 3960 kbps, ~0.18 bit/pixel
Аудио: Русский; AC3, 48 kHz, 6 ch, ~384 kbps
Аудио 2: Английский; AC3, 48 kHz, 6 ch, ~384 kbps
Субтитры: нет

Список серий

  • Пилот (Pilot)
  • Рэд-Экс (Red X)
  • Мэй Чен возвращается (Mei Chen Returns)
  • Секреты секретных служб (Secrets of the Secret Service)
  • Спасение (Cain & Gabriel)
  • Пациент Зеро (Patient Zero)
  • Размер имеет значение (Size Matters)
  • Подразделение «Дельта» (Delta Force)
  • Афиняне (Athens)
  • Кейн и Гэбриэл (Cain and Gabriel)
  • Серый хакер (The Grey Hat)
  • Горизонт событий (The Event Horizon)
  • Быть человеком (Being Human)

MediaInfo

Общее
Уникальный идентификатор : 183413527181822932419430157781027274713 (0x89FC291151A3AF5B9D24ED813CAC3FD9)
Формат : Matroska
Версия формата : Version 4 / Version 2
Размер файла : 1,46 Гбайт
Продолжительность : 43 м.
Общий поток : 4823 Кбит/сек
Название фильма : BaibaKo presents - Интеллект 1х01 Пилот
Дата кодирования : UTC 2014-01-09 02:25:55
Программа кодирования : mkvmerge v6.6.0 ('The Edge Of The In Between') built on Dec 1 2013 17:55:00
Библиотека кодирования : libebml v1.3.0 + libmatroska v1.4.1
Видео
Идентификатор : 1
Формат : AVC
Формат/Информация : Advanced Video Codec
Профиль формата : [email protected]
Параметр CABAC формата : Нет
Параметр ReFrames формата : 2 кадра
Идентификатор кодека : V_MPEG4/ISO/AVC
Продолжительность : 43 м.
Битрейт : 3960 Кбит/сек
Ширина : 1280 пикселей
Высота : 720 пикселей
Соотношение сторон : 16:9
Режим частоты кадров : Постоянный
Частота кадров : 23,976 кадра/сек
Цветовое пространство : YUV
Субдискретизация насыщенности : 4:2:0
Битовая глубина : 8 бит
Тип развёртки : Прогрессивная
Бит/(Пиксели*Кадры) : 0.179
Размер потока : 1,20 Гбайт (82%)
Default : Да
Forced : Нет
Основные цвета : BT.709
Характеристики трансфера : BT.709
Коэффициенты матрицы : BT.709
Аудио #1
Идентификатор : 2
Формат : AC-3
Формат/Информация : Audio Coding 3
Расширение режима : CM (complete main)
Параметр Endianness формата : Big
Идентификатор кодека : A_AC3
Продолжительность : 43 м.
Вид битрейта : Постоянный
Битрейт : 384 Кбит/сек
Каналы : 6 каналов
Расположение каналов : Front: L C R, Side: L R, LFE
Частота : 48,0 КГц
Битовая глубина : 16 бит
Метод сжатия : С потерями
Размер потока : 119 Мбайт (8%)
Заголовок : Rus BaibaKo DD5.1
Язык : Russian
Default : Да
Forced : Нет
Аудио #2
Идентификатор : 3
Формат : AC-3
Формат/Информация : Audio Coding 3
Расширение режима : CM (complete main)
Параметр Endianness формата : Big
Идентификатор кодека : A_AC3
Продолжительность : 43 м.
Вид битрейта : Постоянный
Битрейт : 384 Кбит/сек
Каналы : 6 каналов
Расположение каналов : Front: L C R, Side: L R, LFE
Частота : 48,0 КГц
Битовая глубина : 16 бит
Метод сжатия : С потерями
Размер потока : 119 Мбайт (8%)
Заголовок : Eng DD5.1
Default : Нет
Forced : Нет

Скриншоты

Яндекс.Метрика
Рейтинг@Mail.ru