[ Сегодня на трекере фрилич! Идет свободное скачивание без начисления Download ]

History Channel. Мужчины которые построили Америку / The Men Who Built America [сезон 1, серий 8 из 8] (2012) HDTVRip

 

Создавать темы 02-Апр-2014 21:06

-History Channel. Мужчины которые построили Америку / The Men Who Built America [сезон 1, серий 8 из 8] (2012) HDTVRip- Страна: США
Телекомпания: History Channel
Выпущено: A&E Television Networks, LLC
Год выпуска: 2012
Жанр: Документально-постановочный, биография, история
Режиссер: Патрик Римс, Руан Маган
Продюсер: Гленн Аллен, Брайан Бурстейн
Актеры: Кэмпбелл Скотт, Эрик Роллэнд, Тим Гетман, Адам Йонас Сегальер, Рэй Рейнолдс, Джон С. Бэйли, Джон Дау, Джастин Джералд Морк, Рюэл Пендлтон, Алекс Фалберг
Описание:
Всего через 5 дней после окончания Гражданской войны президент Авраам Линкольн стал последней из 600 тысяч жертв самой кровопролитной войны в истории Америки. Страна расколота. Мир видит в американской демократии не более чем неудачный эксперимент. Но многие не понимают, что это заря новой эры. Нация входит в стадию прогресса. Из вакуума, возникшего после смерти великого политика, равного которому, возможно, не будет никогда, вырастают лидеры нового толка. Рокфеллеры, Форды и Карнеги были первым поколением предпринимателей, которых сегодня называют звездами бизнеса. Это был аналог сегодняшних Баффетов, Джобсов и Гейтсов. Это были люди, сформировавшие стандарты американской мечты. Люди провидческого, изобретательского ума, новаторы, подобных которым история еще не знала. В течение последующих 50-ти лет эта малая группа изменит ход истории, направив Соединенные Штаты Америки по пути к величию.

Продолжительность: 8x~00:42:00
Качество видео: HDTVRip
Перевод: Одноголосый закадровый, профессиональный

Видео кодек: XviD
Битрейт видео: ~1800 Кбит/сек
Размер кадра: 720x400 (16:9)
Аудиокодек: AC-3, 2 ch
Битрейт аудио: 192 Кбит/сек

MediaInfo (параметры всех серий одинаковы)

Общее
Полное имя                               : s01e01_A New War Begins.avi
Формат                                   : AVI
Формат/Информация                        : Audio Video Interleave
Размер файла                             : 558 Мбайт
Продолжительность                        : 39 м.
Общий поток                              : 2002 Кбит/сек
Программа кодирования                    : VirtualDubMod 1.5.10.3 | [url=http://www.virtualdub-fr.org]www.virtualdub-fr.org[/url] || (build 2550/release)
Библиотека кодирования                   : VirtualDubMod build 2550/release
Видео
Идентификатор                            : 0
Формат                                   : MPEG-4 Visual
Профиль формата                          : Advanced [email protected]
Параметр BVOP формата                    : 2
Параметр QPel формата                    : Нет
Параметр GMC формата                     : Без точки перехода
Параметр матрицы формата                 : Default (H.263)
Идентификатор кодека                     : XVID
Идентификатор кодека/Подсказка           : XviD
Продолжительность                        : 39 м.
Битрейт                                  : 1800 Кбит/сек
Ширина                                   : 720 пикселей
Высота                                   : 400 пикселей
Соотношение сторон                       : 16:9
Частота кадров                           : 25,000 кадров/сек
Цветовое пространство                    : YUV
Субдискретизация насыщенности            : 4:2:0
Битовая глубина                          : 8 бит
Тип развёртки                            : Прогрессивная
Метод сжатия                             : С потерями
Бит/(Пиксели*Кадры)                      : 0.250
Размер потока                            : 502 Мбайт (90%)
Библиотека кодирования                   : XviD 1.2.1 (UTC 2008-12-04)
Аудио
Идентификатор                            : 1
Формат                                   : AC-3
Формат/Информация                        : Audio Coding 3
Расширение режима                        : CM (complete main)
Параметр Endianness формата              : Big
Идентификатор кодека                     : 2000
Продолжительность                        : 39 м.
Вид битрейта                             : Постоянный
Битрейт                                  : 192 Кбит/сек
Каналы                                   : 2 канала
Расположение каналов                     : Front: L R
Частота                                  : 48,0 КГц
Битовая глубина                          : 16 бит
Метод сжатия                             : С потерями
Размер потока                            : 53,6 Мбайт (10%)
Выравнивание                             : Разделение по промежуткам
Продолжительность промежутка             : 40  мс. (1,00 видеокадр)
Время предзагрузки промежутка            : 500  мс.

Список серий:

01. Новая война (Корнелиус Вандербильт)
02. Нефтяная лихорадка (Джон Рокфеллер)
03. Начало соперничества (Эндрю Карнеги)
04. Кровопролитие (Эндрю Карнеги, продолжение)
05. Новый конкурент (Джон Морган)
06. Абсолютная власть (Джон Морган, продолжение)
07. Бизнесмены и Белый дом (Белый дом под контролем)
08. Новая машина (Генри Форд)
Скриншоты:
Яндекс.Метрика
Рейтинг@Mail.ru