Два отца и два сына (Радда Новикова)(2013,Комедия) DVDRip (серии 1-20 из 20)

 

Создавать темы 02-Апр-2014 18:06

-Два отца и два сына (2013) DVDRip (серии 1-20 из 20)- Русское название: Два отца и два сына
Производство: "Yellow, Black and White", Россия
Год выпуска: 2013
Жанр: Комедия
Режиссер: Радда Новикова
Актеры: Дмитрий Нагиев, Максим Студеновский, Илья Костюков, Алика Смехова, Виктория Лукина
Описание фильма:
Павел Гуров — успешный актер, звезда телевизионного сериала «Майор Лавров». В жизни Гуров состоявшийся человек, состоятельный Казанова, который прожигает жизнь ради собственных удовольствий.
Всё меняется, когда на пороге его элитной квартиры появляется Виктор — сын, которого Павел бросил 20 лет назад, уехав в Москву строить свою актерскую карьеру. Виктор приезжает вместе с внуком Владом, которого Павел вообще никогда не видел. Виктор — полная противоположность Павла: неудачник, зануда, однолюб. Влад — смышлёный, инициативный мальчик.
Виктор стремится в Москву вслед за своей женой, которая бросила их с Владом в Брянске, уехав в столицу с мечтами стать актрисой. Виктор уверен, что за пару дней убедит жену вернуться в семью, и они вместе вернутся в Брянск. Но в силу обстоятельств Вите приходится задержаться, и Павел Гуров неожиданно для себя становится и отцом, и дедом.

Дата российской премьеры: 21.10.2013
Продолжительность: 20 x ~ 00:25:00
Качество видео: DVDRip
Видеокодек: Xvid
Битрейт видео: ~1800 Kbps
Размер кадра: 720x400
Аудиокодек: AC3
Битрейт аудио: 2 ch, 192 Kbps

MediaInfo:

Общее
Полное имя : E:\DOWNLOADS\Два отца и два сына (2013) DVDRip\Два отца и два сына - 01 серия.avi
Формат : AVI
Формат/Информация : Audio Video Interleave
Размер файла : 353 Мбайт
Продолжительность : 24 м.
Общий поток : 2002 Кбит/сек
Программа кодирования : VirtualDubMod 1.5.10.3 | [url=http://www.virtualdub-fr.org]www.virtualdub-fr.org[/url] || (build 2550/release)
Библиотека кодирования : VirtualDubMod build 2550/release
Видео
Идентификатор : 0
Формат : MPEG-4 Visual
Профиль формата : Advanced [email protected]
Параметр BVOP формата : 1
Параметр QPel формата : Нет
Параметр GMC формата : Без точки перехода
Параметр матрицы формата : Выборочная
Идентификатор кодека : XVID
Идентификатор кодека/Подсказка : XviD
Продолжительность : 24 м.
Битрейт : 1801 Кбит/сек
Ширина : 720 пикселей
Высота : 400 пикселей
Соотношение сторон : 16:9
Частота кадров : 25,000 кадров/сек
Цветовое пространство : YUV
Субдискретизация насыщенности : 4:2:0
Битовая глубина : 8 бит
Тип развёртки : Прогрессивная
Метод сжатия : С потерями
Бит/(Пиксели*Кадры) : 0.250
Размер потока : 317 Мбайт (90%)
Библиотека кодирования : XviD 73
Аудио
Идентификатор : 1
Формат : AC-3
Формат/Информация : Audio Coding 3
Расширение режима : CM (complete main)
Параметр Endianness формата : Big
Идентификатор кодека : 2000
Продолжительность : 24 м.
Вид битрейта : Постоянный
Битрейт : 192 Кбит/сек
Каналы : 2 канала
Расположение каналов : Front: L R
Частота : 48,0 КГц
Битовая глубина : 16 бит
Метод сжатия : С потерями
Размер потока : 33,8 Мбайт (10%)
Выравнивание : Разделение по промежуткам
Продолжительность промежутка : 40 мс. (1,00 видеокадр)
Время предзагрузки промежутка : 500 мс.
Скриншоты:
Яндекс.Метрика
Рейтинг@Mail.ru