[ Сегодня на трекере фрилич! Идет свободное скачивание без начисления Download ]

Охотники на демонов / Hellbenders (Дж.Т. Петти)(2012,Комедия, Ужасы) BDRip [1080p] 3D [Вертикальная анаморфная стереопара]

 

Создавать темы 02-Апр-2014 09:56

-Охотники на демонов / Hellbenders (2012) BDRip«Нечистая сила в шоке»- Год выпуска: 2012
Жанр: Комедия, Ужасы
Описание фильма:
Эксцентричная комедия о команде распутных экзорцистов, изгоняющих нечистую силу, которая жаждет ввергнуть Землю в хаос. Члены Ордена используют любую возможность согрешить для того, чтобы привлечь внимание демонов. Их план прост и эффективен: они заставляют демона вселиться в одного из них, а потом берут его тепленьким. Но однажды они сталкиваются кое с кем посильнее, чем мелкие бесы. Сам Сатана решает бросить им вызов! Охотникам приходится впасть во все тяжкие и отправить дьявола обратно в Ад!-Режиссер: Дж.Т. Петти
Актеры: Клифтон Коллинз мл., Клэнси Браун, Андре Ройо, Робин Рикун, Макон Блэр, Стивен Геведон, Ларри Фесенден, Дэн Фоглер, Аарон Ауслендер, Эдоардо Баллерини
Продолжительность: 01:26:44
Качество видео: BDRip
Перевод: Дублированный (R5)-
Рейтинг MPAA: PG-17
Возраст: 18+
Дата мировой премьеры: 9 сентября 2012
Дата российской премьеры: 31 октября 2013, «Наше Кино»
Дата выхода DVD релиза: 23 января 2014, «CD Land»-Видеокодек: MPEG-4 AVC/H.264
Битрейт видео: ~13,0 Мбит/сек
Размер кадра: 1920x1080
Аудио 1: AC3 5.1, 256 kbps [Русский]
Аудио 2: AC3 5.1, 640 kbps [Английский]-

Media info:

Общее
Уникальный идентификатор : 246648755353750176609695647736767003019 (0xB98ED286B84CEF6D9D31B20CE7B1398B)
Полное имя : F:\my films\HELLBENDERS_3D.mkv
Формат : Matroska
Версия формата : Version 2
Размер файла : 8,57 Гбайт
Продолжительность : 1 ч. 26 м.
Общий поток : 14,1 Мбит/сек
Название фильма : HELLBENDERS_3D_Crop _O/U
Дата кодирования : UTC 2014-04-01 20:21:00
Программа кодирования : mkvmerge v5.7.0 ('The Whirlwind') built on Aug 7 2012 14:11:40
Библиотека кодирования : libebml v1.2.3 + libmatroska v1.3.0
Видео
Идентификатор : 1
Формат : AVC
Формат/Информация : Advanced Video Codec
Профиль формата : [url=mailto:[email protected]][email protected][/url]
Параметр CABAC формата : Да
Параметр ReFrames формата : 4 кадра
Идентификатор кодека : V_MPEG4/ISO/AVC
Продолжительность : 1 ч. 26 м.
Битрейт : 13,0 Мбит/сек
Ширина : 1920 пикселей
Высота : 1080 пикселей
Соотношение сторон : 16:9
Режим частоты кадров : Постоянный
Частота кадров : 23,976 кадра/сек
Цветовое пространство : YUV
Субдискретизация насыщенности : 4:2:0
Битовая глубина : 8 бит
Тип развёртки : Прогрессивная
Бит/(Пиксели*Кадры) : 0.261
Размер потока : 7,86 Гбайт (92%)
Заголовок : rip by I/N
Библиотека кодирования : x264 core 128 r2216M 198a7ea
Настройки программы : cabac=1 / ref=4 / deblock=1:-3:-3 / analyse=0x3:0x133 / me=umh / subme=10 / psy=1 / psy_rd=1.00:0.15 / mixed_ref=1 / me_range=32 / chroma_me=1 / trellis=2 / 8x8dct=1 / cqm=0 / deadzone=21,11 / fast_pskip=1 / chroma_qp_offset=-3 / threads=8 / lookahead_threads=1 / sliced_threads=0 / nr=0 / decimate=1 / interlaced=0 / bluray_compat=0 / constrained_intra=0 / bframes=6 / b_pyramid=2 / b_adapt=2 / b_bias=0 / direct=3 / weightb=1 / open_gop=0 / weightp=2 / keyint=230 / keyint_min=23 / scenecut=40 / intra_refresh=0 / rc_lookahead=60 / rc=crf / mbtree=1 / crf=17.0 / qcomp=0.60 / qpmin=0 / qpmax=69 / qpstep=4 / vbv_maxrate=40000 / vbv_bufsize=30000 / crf_max=30.0 / nal_hrd=none / ip_ratio=1.40 / aq=1:1.00
Default : Да
Forced : Нет
Аудио #1
Идентификатор : 2
Формат : AC-3
Формат/Информация : Audio Coding 3
Расширение режима : CM (complete main)
Параметр Endianness формата : Big
Идентификатор кодека : A_AC3
Продолжительность : 1 ч. 26 м.
Вид битрейта : Постоянный
Битрейт : 256 Кбит/сек
Каналы : 6 каналов
Расположение каналов : Front: L C R, Side: L R, LFE
Частота : 48,0 КГц
Битовая глубина : 16 бит
Метод сжатия : С потерями
Размер потока : 159 Мбайт (2%)
Заголовок : Дубляж (R5)
Язык : Russian
Default : Да
Forced : Нет
Аудио #2
Идентификатор : 3
Формат : AC-3
Формат/Информация : Audio Coding 3
Расширение режима : CM (complete main)
Параметр Endianness формата : Big
Идентификатор кодека : A_AC3
Продолжительность : 1 ч. 26 м.
Вид битрейта : Постоянный
Битрейт : 640 Кбит/сек
Каналы : 6 каналов
Расположение каналов : Front: L C R, Side: L R, LFE
Частота : 48,0 КГц
Битовая глубина : 16 бит
Метод сжатия : С потерями
Размер потока : 397 Мбайт (5%)
Заголовок : Original
Язык : English
Default : Нет
Forced : Нет
Меню
00:00:00.000 : en:(01)00:00:00:000
00:05:57.357 : en:(02)00:05:57:357
00:10:47.647 : en:(03)00:10:47:647
00:19:38.093 : en:(04)00:19:38:093
00:31:20.295 : en:(05)00:31:20:295
00:43:51.795 : en:(06)00:43:51:795
00:49:48.527 : en:(07)00:49:48:527
00:53:50.185 : en:(08)00:53:50:185
01:00:48.227 : en:(09)01:00:48:227
01:05:22.043 : en:(10)01:05:22:043
01:17:32.939 : en:(11)01:17:32:939
01:21:34.180 : en:(12)01:21:34:180
01:26:43.990 : en:(13)01:26:43:990
Проверено на встроенном плейере ТВ Samsung-D6500Скриншоты:

Особенности релиза:

Справа и слева у видеоряда обрезано по 248р, что дает возможность просмотра на полный экран (без черных полос) на телевизорах с соотношением сторон 16:9 без изменения пропорций. На мой взгляд плюсы данных рипов- это более глубокое восприятие 3D-эффектов (конечно там где они есть) К минусам отнесу- вынужденное обрезание кадра по бокам. Так-что господа- выбор за вами! Всем приятного просмотра!
Яндекс.Метрика
Рейтинг@Mail.ru