Спартак: Война проклятых / Spartacus: War of the Damned [03x01-10 из 10] (2013) HDRip | РЕН-ТВ

 

Создавать темы 31-Мар-2014 11:12

- -- Информация о фильме
Название: Спартак: Война проклятых / Spartacus: War of the Damned
Год выпуска: 2013
Жанр: Боевик, драма, приключения, биография, история
Режиссер: Рик Джейкобсон
В ролях: Лиам МакИнтайр, Ману Беннетт, Ричард Нортон, Дастин Клер, Дэниэл Фьюрриджел, Синтия Аддай-Робинсон, Саймон Меррелс, Эллен Холлман, Дитч Дэвей, Пена Хема Тейлор-Описание:

«Спартак» — это жесткий и выразительный рассказ о самом знаменитом из римских гладиаторов. Спартака разлучили с любовью всей его жизни и заставили выходить на арену, где смерть — лучшее развлечение для толпы. Спартак должен бороться за выживание, подружиться с врагами, и усвоить политику нового мира жестокости, секса и славы. Его будут соблазнять властью и изводить местью. Но его страсть даст ему силы преодолеть все испытания в этой истории о смерти, чести и стойкости.
-

Список серий:

01. Враги Рима / Enemies of Rome
02. Волки у ворот / Wolves at the Gate
03. Люди чести / Men of Honor
04. Децимация / Decimation
05. Братья по крови / Blood Brothers
06. Военные трофеи / Spoils of War
07. Неизбежная смерть / Mors Indecepta
08. Разные пути / Separate Paths
09. Мёртвые и умирающие / The Dead and the Dying
10. Победа / Victory
-

Кстати:

- -По завершении первого сезона производство сериала было приостановлено в связи с неожиданной диагностикой рака у Энди Уитфилда, исполняющего роль Спартака. Продюсеры собирались ждать выздоровления актера и не приступать до тех пор к съемкам второго сезона, но когда болезнь начала прогрессировать, и Уитфилд окончательно покинул сериал, был проведен рекастинг, и на главную роль выбрали Лиама Макинтайера. Энди Уитфилд скончался в сентябре 2011 года.Релиз:
Автор дубляжа: РЕН-ТВ
Автор релиза: miha2154
РЕН-ТВ сократили полную версию эпизодов, поэтому местами дублированный перевод отсутствует.
-

Тех. данные

Продолжительность: 10 x ~ 00:56:00
Выпущено: США, Starz Media, Starz Productions
Перевод: Дублированный [РЕН-ТВ]
Файл
Формат: AVI
Качество: HDRip
Видео: XviD, 1314 Кбит/с, 720 x 400
Аудио: AC3, 6 ch, 384 Кбит/с

MI:
General
Complete name : C:музыкаНовая папкаСпартак. Война проклятых3x01 - Enemies of Rome (Враги Рима).avi
Format : AVI
Format/Info : Audio Video Interleave
File size : 876 MiB
Duration : 51mn 27s
Overall bit rate : 2 380 Kbps
Movie name : Спартак: Война проклятых. Сезон 3 / Spartacus: War of the Damned. Season 3 (2013)
Director : miha2154
Writing application : VirtualDubMod 1.5.10.2 (build 2540/release)
Writing library : VirtualDubMod build 2540/release
Video
ID : 0
Format : MPEG-4 Visual
Format profile : Advanced [email protected]
Format settings, BVOP : Yes
Format settings, QPel : No
Format settings, GMC : No warppoints
Format settings, Matrix : Default (MPEG)
Codec ID : XVID
Codec ID/Hint : XviD
Duration : 51mn 27s
Bit rate : 1 981 Kbps
Width : 720 pixels
Height : 400 pixels
Display aspect ratio : 16:9
Frame rate : 23.976 fps
Resolution : 8 bits
Colorimetry : 4:2:0
Scan type : Progressive
Bits/(Pixel*Frame) : 0.287
Stream size : 729 MiB (83%)
Writing library : XviD 1.1.0 (UTC 2005-11-22)
Audio #1
ID : 1
Format : AC-3
Format/Info : Audio Coding 3
Codec ID : 2000
Duration : 51mn 27s
Bit rate mode : Constant
Bit rate : 192 Kbps
Channel(s) : 2 channels
Channel positions : Front: L R
Sampling rate : 48.0 KHz
Stream size : 70.7 MiB (8%)
Alignment : Split accross interleaves
Interleave, duration : 42 ms (1.00 video frame)
Interleave, preload duration : 500 ms
Title : Профессиональный (полное дублирование) РенТВ
Audio #2
ID : 2
Format : AC-3
Format/Info : Audio Coding 3
Codec ID : 2000
Duration : 51mn 27s
Bit rate mode : Constant
Bit rate : 192 Kbps
Channel(s) : 2 channels
Channel positions : Front: L R
Sampling rate : 48.0 KHz
Stream size : 70.7 MiB (8%)
Alignment : Split accross interleaves
Interleave, duration : 42 ms (1.00 video frame)
Interleave, preload duration : 500 ms
Title : Английский
-

Скриншоты

-
Яндекс.Метрика
Рейтинг@Mail.ru