[ Сегодня на трекере фрилич! Идет свободное скачивание без начисления Download ]

Борис Акунин - Подборка аудиокниг. Часть 2 - 17 томов [2011-2013 гг., Сергей Чонишвили, Юрий Заборовский, Алёна Бабенко, Ирина Ерисанова, Александр Клюквин и др., MP3, более 210 часов]

 

Создавать темы 30-Мар-2014 03:30

-
Подборка аудиокниг. Часть 2 - 17 томов
-- Года выпуска: 2011-2013 гг.
Автор / Официальный сайт: Борис Акунин
Исполнители: Сергей Чонишвили, Юрий Заборовский, Алёна Бабенко, Ирина Ерисанова, Александр Клюквин, Борис Плотников, Максим Суханов, Егор Бероев, Игорь Князев, Надежда Винокурова
Жанр: Детектив, историческая библиотека
Издательства: Союз, Покидышевъ и сыновья, Нигде не купишь (Клуб любителей аудиокниг), Аудиокнига, The Black Box Publishing
Тип аудиокниги: аудиокнига
Время звучания: более 210 часов
Описание:
Дабы не усложнять жизнь господам пиратам, продолжение подборки аудиокниг организовано в отдельную вторую часть.

Состав раздачи

01. Приключения Николаса Фандорина

01.01. Алтын-толобас. Вариант 3

Год выпуска: 2013
Исполнитель: Юрий Заборовский
Жанр: Детектив
Издательство: Нигде не купишь (Клуб любителей аудиокниг)
Тип аудиокниги: аудиокнига
Аудио кодек: MP3
Битрейт аудио: 96 kbps, 22 kHz, Mono
Время звучания: 15:07:59
Описание:
Книги известного современного писателя Бориса Акунина написаны на материале русской истории. Детективно-авантюрный сюжет, изящный, чистый русский язык, необыкновенные приключения героев, сделали романы Бориса Акунина самым популярным чтением последних лет. Писатель достиг главного - он вернул любовь к истории и литературе.
Британскоподданный, магистр исторических наук Николас Фандорин приезжает в Москву, чтобы предаться изысканиям и узнать что-нибудь про родоначальника Фандориных - фон Дорна. В XVII столетии красавец-мушкетер голландский ландскнехт Корнелиус фон Дорн прибыл в Москву на царскую службу. Жизнь капитана была наполнена событиями невероятными и роковыми. Ведь приехать в Россию можно, а уехать - ни за что и никогда...

Media Info

Общее
Полное имя : [Pirat.ca]_Akunin_Sobranie.Sochinenii_Audio_Chast.2\01. Приключения Николаса Фандорина\01. Алтын-толобас. Вариант 3\001.mp3
Формат : MPEG Audio
Размер файла : 5,85 Мбайт
Продолжительность : 8 м. 21 с.
Режим общего битрейта : Постоянный
Общий поток : 96,0 Кбит/сек
Альбом : Приключения магистра. книга 1
Альбом/Исполнитель : Юрий Заборовский
Трек : Алтын-Толобас
Трек/Положение : 01
Трек/Всего : 92
Исполнитель : Акунин Борис
Библиотека кодирования : LAME3.98.4
Обложка : Yes
Тип обложки : Cover (front)
MIME-тип обложки : image/jpeg
Аудио
Формат : MPEG Audio
Версия формата : Version 2
Профиль формата : Layer 3
Продолжительность : 8 м. 21 с.
Вид битрейта : Постоянный
Битрейт : 96,0 Кбит/сек
Каналы : 1 канал
Частота : 22,05 КГц
Метод сжатия : С потерями
Размер потока : 5,73 Мбайт (98%)
Библиотека кодирования : LAME3.98.4

01.01. Алтын-толобас. Вариант 4

Год выпуска: 2013
Исполнитель: Сергей Чонишвили
Жанр: Детектив
Издательство: ИД «Союз», Покидышевъ и сыновья
Тип аудиокниги: аудиокнига
Аудио кодек: MP3
Битрейт аудио: 128 kbps, 44 kHz, Joint Stereo
Время звучания: 11:27:03
Описание:
Действие романа развивается параллельно в современной России и в России конца семнадцатого века. Английский историк Николас Фандорин, потомок знаменитого детектива Эраста Петровича Фандорина, идёт по следам своего предка, Корнелиуса фон Дорна. В то время, как Корнелиус знакомится с Россией предпетровской эпохи, сэр Николас вкушает прелести постсоветской реальности. Оказывается, что Россия сегодня, как и 300 лет назад, полна сюрпризов и неожиданностей.

Media Info

Общее
Полное имя : [Pirat.ca]_Akunin_Sobranie.Sochinenii_Audio_Chast.2\01. Приключения Николаса Фандорина\01. Алтын-толобас. Вариант 4\0001.mp3
Формат : MPEG Audio
Размер файла : 9,30 Мбайт
Продолжительность : 9 м. 32 с.
Режим общего битрейта : Постоянный
Общий поток : 128 Кбит/сек
Альбом : Алтын-толобас
Альбом/Исполнитель : Сергей Чонишвили
Трек/Положение : 01
Трек/Всего : 41
Исполнитель : Борис Акунин
Издатель : Союз, Покидышевъ и сыновья
Жанр : Аудиокнига
Дата записи : 2013
Обложка : Yes
Тип обложки : Cover (front)
MIME-тип обложки : image/jpeg
Примечание : Сергей Чонишвили
Аудио
Формат : MPEG Audio
Версия формата : Version 1
Профиль формата : Layer 3
Режим : Joint stereo
Расширение режима : MS Stereo
Продолжительность : 9 м. 33 с.
Вид битрейта : Постоянный
Битрейт : 128 Кбит/сек
Каналы : 2 канала
Частота : 44,1 КГц
Метод сжатия : С потерями
Размер потока : 8,74 Мбайт (94%)

01.02. Внеклассное чтение. Вариант 2

Год выпуска: 2013
Исполнитель: Ирина Ерисанова
Жанр: Детектив
Издательство: Нигде не купишь (Клуб любителей аудиокниг)
Тип аудиокниги: аудиокнига
Аудио кодек: MP3
Битрейт аудио: 96 kbps, 22 kHz, Mono
Время звучания: 19:29:35
Описание:
Самый объемный роман Бориса Акунина! Пять Фандориных в одном романе! Подобно тому, как всякая тайна может быть раскрыта и рассказана, криминальная загадка также нуждается в отгадывании и изощренном ходе мыслей. Действие нового романа развивается параллельно: в последний год царствования Екатерины II и в наши дни.
Семилетний вундеркинд по имени Митридат волею случая становится свидетелем заговора против сластолюбивой императрицы. Спасая Екатерину от неминуемой смерти, мальчик ставит на карту собственную судьбу. Кажется, что огромная страна Россия полна интриг и заговорщиков, помощи ждать неоткуда, но тут появляется благородный отшельник Данила Фандорин…
Современный сюжет - захватывающая криминальная история. Модный пластический хирург, оперирующий бомонд Москвы и задумавший стать фармацевтическим королем России, готов пожертвовать ради многомиллиардных прибылей судьбой дочери. Девочку спасет русский англичанин Николас Фандорин…
Отличие от Варианта 1, представленного в Первой части - добавлены недостающие фрагменты, добавлена обложка, исправлена нумерация, подправлены тэги, изменена частота (см. Media Info)

Media Info

Общее
Полное имя : [Pirat.ca]_Akunin_Sobranie.Sochinenii_Audio_Chast.2\01. Приключения Николаса Фандорина\02. Внеклассное чтение. Вариант 2\0001.mp3
Формат : MPEG Audio
Размер файла : 10,6 Мбайт
Продолжительность : 15 м.
Режим общего битрейта : Постоянный
Общий поток : 96,0 Кбит/сек
Альбом : Внеклассное чтение
Альбом/Исполнитель : Ирина Ерисанова
Трек/Положение : 01
Трек/Всего : 60
Исполнитель : Акунин Борис
Дата записи : 2003
Библиотека кодирования : LAME3.98.4
Обложка : Yes
Тип обложки : Cover (front)
MIME-тип обложки : image/jpeg
Аудио
Формат : MPEG Audio
Версия формата : Version 2
Профиль формата : Layer 3
Продолжительность : 15 м.
Вид битрейта : Постоянный
Битрейт : 96,0 Кбит/сек
Каналы : 1 канал
Частота : 22,05 КГц
Метод сжатия : С потерями
Размер потока : 10,4 Мбайт (99%)
Библиотека кодирования : LAME3.98.4

01.02. Внеклассное чтение. Вариант 3

Год выпуска: 2013
Исполнитель: Александр Клюквин
Жанр: Детектив
Издательство: ИД «Союз», Покидышевъ и сыновья
Тип аудиокниги: аудиокнига
Аудио кодек: MP3
Битрейт аудио: 128 kbps, 44 kHz, Joint Stereo
Время звучания: 18:41:32
Описание:
Действие романа развивается параллельно: в последний год царствования Екатерины Великой и в начале XXI века. Семилетний вундеркинд по имени Митридат становится свидетелем заговора против императрицы. Стараясь спасти ее от смерти, мальчик сам оказывается впутан в дворцовые интриги и его собственной жизни грозит опасность. Кажется, что, помощи ждать неоткуда, но тут появляется благородный отшельник Данила Фандорин... Современный сюжет - история известного пластического хирурга, оперирующего самых богатых и известных людей Москвы, готового пожертвовать судьбой дочери ради много миллиардной прибыли.

Media Info

Общее
Полное имя : [Pirat.ca]_Akunin_Sobranie.Sochinenii_Audio_Chast.2\01. Приключения Николаса Фандорина\02. Внеклассное чтение. Вариант 3\0001.mp3
Формат : MPEG Audio
Размер файла : 15,5 Мбайт
Продолжительность : 16 м.
Режим общего битрейта : Постоянный
Общий поток : 128 Кбит/сек
Альбом : Внеклассное чтение
Альбом/Исполнитель : Александр Клюквин
Трек/Положение : 01
Трек/Всего : 82
Исполнитель : Борис Акунин
Издатель : Союз, Покидышевъ и сыновья
Жанр : Аудиокнига
Дата записи : 2013
Обложка : Yes
Тип обложки : Cover (front)
MIME-тип обложки : image/jpeg
Примечание : Читает: Александр Клюквин
Аудио
Формат : MPEG Audio
Версия формата : Version 1
Профиль формата : Layer 3
Режим : Joint stereo
Расширение режима : MS Stereo
Продолжительность : 16 м.
Вид битрейта : Постоянный
Битрейт : 128 Кбит/сек
Каналы : 2 канала
Частота : 44,1 КГц
Метод сжатия : С потерями
Размер потока : 15,1 Мбайт (97%)

02. Приключения магистра

02.03. Ф.М. Вариант 2

Год выпуска: 2013
Исполнитель: Александр Клюквин
Жанр: Детектив
Издательство: ИД «Союз», Покидышевъ и сыновья
Тип аудиокниги: аудиокнига
Аудио кодек: MP3
Битрейт аудио: 64 kbps, 44 kHz, Stereo
Время звучания: 16:20:57
Описание:
В романе «Ф.М.» вас ждет рассказ об увлекательных и полных опасностей приключениях внука Эраста Петровича Фандорина - Николаса, который отправляется на поиски неизвестной рукописи Ф.М. Достоевского, представляющую огромную ценность для всего мира. Ему противостоит необычный и хитрый соперник, предстающий каждый раз в новом обличье: Спайдермен, чёрт, Красная Шапочка, персонаж аниме «InuYasha» и др.

Media Info

Общее
Полное имя : [Pirat.ca]_Akunin_Sobranie.Sochinenii_Audio_Chast.2\02. Приключения магистра\03. Ф.М. Вариант 2\01.mp3
Формат : MPEG Audio
Размер файла : 8,02 Мбайт
Продолжительность : 18 м.
Режим общего битрейта : Переменный
Общий поток : 59,7 Кбит/сек
Альбом : Ф.М.
Альбом/Исполнитель : Б.Акунин
Трек : 01
Исполнитель : Б.Акунин
Жанр : Other
Библиотека кодирования : LAME3.99r
Аудио
Формат : MPEG Audio
Версия формата : Version 1
Профиль формата : Layer 3
Режим : Joint stereo
Расширение режима : MS Stereo
Продолжительность : 18 м.
Вид битрейта : Переменный
Битрейт : 59,7 Кбит/сек
Минимальный битрейт : 32,0 Кбит/сек
Каналы : 2 канала
Частота : 44,1 КГц
Метод сжатия : С потерями
Размер потока : 8,02 Мбайт (100%)
Библиотека кодирования : LAME3.99r
Настройки программы : -m j -V 8 -q 5 -lowpass 15.2 --vbr-new -b 32

02.04. Сокол и ласточка. Вариант 3

Год выпуска: 2013
Исполнитель: Александр Клюквин
Жанр: Детектив
Издательство: ИД «Союз», Покидышевъ и сыновья
Тип аудиокниги: аудиокнига
Аудио кодек: MP3
Битрейт аудио: 128 kbps, 44 kHz, Stereo
Время звучания: 15:37:32
Описание:
2009 год. Разгар мирового финансового кризиса. Николас Фандорин получает неожиданный подарок от своей состоятельной тетушки из Англии. Она преподносит племяннику письмо некоего Эпина, в котором зашифрован путь к тайнику с несметными сокровищами. Фандорин с азартом берется за это дело. Современный сюжет переплетается с историческим авантюрным повествованием. На сей раз очередной представитель рода фон Дорнов, живший три столетия назад, попадает в далекие корсарские моря, где ему, конечно же, предстоит совершить плавание к Острову Сокровищ…

Media Info

Общее
Полное имя : [Pirat.ca]_Akunin_Sobranie.Sochinenii_Audio_Chast.2\02. Приключения магистра\04. Сокол и ласточка. Вариант 3\0001.mp3
Формат : MPEG Audio
Размер файла : 14,6 Мбайт
Продолжительность : 15 м.
Режим общего битрейта : Постоянный
Общий поток : 128 Кбит/сек
Альбом : Сокол и ласточка
Альбом/Исполнитель : Александр Клюквин
Трек/Положение : 1
Трек/Всего : 76
Исполнитель : Борис Акунин
Жанр : аудиокнига
Дата записи : 2013
Обложка : Yes
Тип обложки : Cover (front)
MIME-тип обложки : image/jpeg
Аудио
Формат : MPEG Audio
Версия формата : Version 1
Профиль формата : Layer 3
Режим : Joint stereo
Расширение режима : MS Stereo
Продолжительность : 15 м.
Вид битрейта : Постоянный
Битрейт : 128 Кбит/сек
Каналы : 2 канала
Частота : 44,1 КГц
Метод сжатия : С потерями
Размер потока : 14,4 Мбайт (99%)

03. Приключения Пелагии

03.03. Пелагия и красный петух. Вариант 3

Год выпуска: 2013
Исполнитель: Алена Бабенко
Жанр: Детектив
Издательство: Аудиокнига
Тип аудиокниги: аудиокнига
Аудио кодек: MP3
Битрейт аудио: 128 kbps, 44 kHz, Stereo
Время звучания: 14:49:52
Описание:
Роман «Пелагия и красный петух» завершает трилогию о приключениях непоседливой очкастой монахини, преосвященного Митрофания и губернского прокурора Матвея Бердичевского. На сей раз запутанная нить, которую разматывает сестра Пелагия, заводит ее слишком далеко – туда, откуда, быть может, и вовсе нет возврата...
Отличие от Варианта 2, представленного в Первой части - добавлена недостающая глава 004, добавлена обложка, подправлены тэги

Media Info

Общее
Полное имя : [Pirat.ca]_Akunin_Sobranie.Sochinenii_Audio_Chast.2\03. Приключения Пелагии\03. Пелагия и красный петух. Вариант 3\001.mp3
Формат : MPEG Audio
Размер файла : 14,7 Мбайт
Продолжительность : 15 м.
Режим общего битрейта : Постоянный
Общий поток : 128 Кбит/сек
Альбом : Пелагия и красный петух (чит. Алена Бабенко)
Трек/Положение : 001
Трек/Всего : 87
Исполнитель : Борис Акунин
Жанр : Abook
Дата записи : 2009
Обложка : Yes
Описание обложки : Cover Art (Front).jpg
Тип обложки : Cover (front)
MIME-тип обложки : image/jpeg
Примечание : Netlab
COVER ART (FRONT) : Cover Art (Front).jpg
Аудио
Формат : MPEG Audio
Версия формата : Version 1
Профиль формата : Layer 3
Продолжительность : 15 м.
Вид битрейта : Постоянный
Битрейт : 128 Кбит/сек
Каналы : 2 канала
Частота : 44,1 КГц
Метод сжатия : С потерями
Размер потока : 14,6 Мбайт (99%)

04. Приключения Эраста Фандорина

04.01. Азазель. Вариант 4

Год выпуска: 2013
Исполнитель: Юрий Заборовский
Жанр: Детектив
Издательство: Нигде не купишь (Клуб любителей аудиокниг)
Тип аудиокниги: аудиокнига
Аудио кодек: MP3
Битрейт аудио: 96 kbps, 22 kHz, Mono
Время звучания: 08:57:24
Описание:
Азазель (конспирологический детектив) - книга Бориса Акунина, написана в 1998 году, первый роман из серии о необыкновенном сыщике Эрасте Фандорине. Время действия в книге - 1876 год. Эраст Петрович Фандорин удачлив, бесстрашен, благороден и привлекателен и ему всего лишь двадцать лет. Но самое главное - он прирождённый сыщик. Юный Эраст Петрович служит в полицейском управлении письмоводителем, но по долгу службы сталкивается с запутанным делом. Он принимается за расследование. Странное самоубийство студента - наследника крупного состояния приводит Фандорина к некоей крупной подпольной организации, в которой замешаны весьма влиятельные лица. Эта книга стала первой в серии увлекательнейших детективов про приключения сыщика Эраста Фандорина.
Отличие от Варианта 2, представленного в Первой части - очищено, добавлена обложка, изменена частота (см. Media Info)

Media Info

Общее
Полное имя : [Pirat.ca]_Akunin_Sobranie.Sochinenii_Audio_Chast.2\04. Приключения Эраста Фандорина\01. Азазель. Вариант 4\001.mp3
Формат : MPEG Audio
Размер файла : 8,07 Мбайт
Продолжительность : 11 м.
Режим общего битрейта : Постоянный
Общий поток : 96,0 Кбит/сек
Альбом : Приключения Эраста Фандорина. 1
Альбом/Исполнитель : Юрий Заборовский
Трек : Азазель
Трек/Положение : 01
Трек/Всего : 52
Исполнитель : Акунин Борис
Библиотека кодирования : LAMEUU / 7 fК €f}EВi
Обложка : Yes
Тип обложки : Cover (front)
MIME-тип обложки : image/jpeg
Аудио
Формат : MPEG Audio
Версия формата : Version 2
Профиль формата : Layer 3
Продолжительность : 11 м.
Вид битрейта : Постоянный
Битрейт : 96,0 Кбит/сек
Каналы : 1 канал
Частота : 22,05 КГц
Метод сжатия : С потерями
Размер потока : 7,98 Мбайт (99%)
Библиотека кодирования : LAMEUU / 7 fК €f}EВi

04.04. Смерть Ахиллеса. Вариант 4

Год выпуска: 2013
Исполнитель: Юрий Заборовский
Жанр: Детектив
Издательство: Нигде не купишь (Клуб любителей аудиокниг)
Тип аудиокниги: аудиокнига
Аудио кодек: MP3
Битрейт аудио: 128 kbps, 44 kHz, Mono
Время звучания: 12:22:44
Описание:
Роман Бориса Акунина «Смерть Ахиллеса»- это добротный детектив, приятный для не обременяющего мозг чтения, и не раздражающий, в отличие от большинства его современных собратьев, глупостью или пошлостью. В этой книге описывается расследование обстоятельств смерти всенародного любимца, генерала Соболева, сыщиком Эрастом Фандориным, а также приводится развернутая биография генеральского киллера: история превращения мальчика Ахимаса в закоренелого негодяя и наемного убийцу. Действие романа происходит в конце XIX века, а основные события разворачиваются летом 1882 года, в период с 25 по 29 июня.

Media Info

Общее
Полное имя : [Pirat.ca]_Akunin_Sobranie.Sochinenii_Audio_Chast.2\04. Приключения Эраста Фандорина\04. Смерть Ахиллеса. Вариант 4\001_Смерть Ахиллеса.mp3
Формат : MPEG Audio
Размер файла : 32,5 Мбайт
Продолжительность : 35 м.
Режим общего битрейта : Постоянный
Общий поток : 128 Кбит/сек
Альбом : Смерть Ахиллеса
Альбом/Исполнитель : Акунин Борис
Трек/Положение : 01
Исполнитель : Акунин Борис
Жанр : Детектив
Дата записи : 2013
Правообладатель : Нигде не купишь
Обложка : Yes
Тип обложки : Cover (front)
MIME-тип обложки : image/jpg
Примечание : Заборовский Юрий
Аудио
Формат : MPEG Audio
Версия формата : Version 1
Профиль формата : Layer 3
Продолжительность : 35 м.
Вид битрейта : Постоянный
Битрейт : 128 Кбит/сек
Каналы : 1 канал
Частота : 44,1 КГц
Метод сжатия : С потерями
Размер потока : 32,4 Мбайт (100%)

04.05-06. Особые поручения. Пиковый валет. Декоратор. Вариант 2

Год выпуска: 2011-2013
Исполнитель: Сергей Чонишвили
Жанр: Детектив
Издательство: ИД «Союз», Покидышевъ и сыновья
Тип аудиокниги: аудиокнига
Аудио кодек: MP3
Битрейт аудио: 128 kbps, 44 kHz, Stereo
Время звучания: 10:17:35
Описание:
В аудиокнигу «Особые поручения» вошли два детектива из серии «Приключения Эраста Фандорина»: «Пиковый валет» и «Декоратор».
«Пиковый валет». Москва 1886 г. Чиновник особых поручений Эраст Петрович Фандорин сталкивается с новой проблемой. В городе орудует банда мошенников «Пиковый валет». Пожалуй, впервые за всю свою карьеру надворный советник встречает такого серьезного соперника, не уступающего ему в мастерстве перевоплощения, изобретательности и силе духа.
Время звучания:04:25:25
«Декоратор». Москва 1889 г. В городе орудует серийный маньяк. Он выбирает себе в жертвы женщин легкого поведения и убивает их с особой жестокостью. Эраст Петрович Фандорин, чиновник особых поручений при московском генерал-губернаторе, делает все, чтобы напасть на след преступника....
Время звучания: 05:52:10
Отличие от Варианта 1, представленного в Первой части - добавлен отсутствующий в официальном издании файл 0037 («Декоратор») в исполнении Сергея Чонишвили

Media Info

Общее
Полное имя : [Pirat.ca]_Akunin_Sobranie.Sochinenii_Audio_Chast.2\04. Приключения Эраста Фандорина\05-06. Особые поручения. Пиковый валет. Декоратор. Вариант 2\02 Декоратор\0037.mp3
Формат : MPEG Audio
Размер файла : 1,98 Мбайт
Продолжительность : 2 м. 5 с.
Режим общего битрейта : Постоянный
Общий поток : 128 Кбит/сек
Альбом : Особые поручения
Альбом/Исполнитель : Сергей Чонишвили
Часть/Положение : 2
Трек : Декоратор. Хлопотный день.
Трек/Положение : 37
Исполнитель : Борис Акунин
Жанр : аудиокнига
Дата записи : 2011
Библиотека кодирования : LAME3.98.4UUUUUU P
Обложка : Yes
Тип обложки : Cover (front)
MIME-тип обложки : image/jpeg
Аудио
Формат : MPEG Audio
Версия формата : Version 1
Профиль формата : Layer 3
Продолжительность : 2 м. 6 с.
Вид битрейта : Постоянный
Битрейт : 128 Кбит/сек
Каналы : 2 канала
Частота : 44,1 КГц
Метод сжатия : С потерями
Размер потока : 1,92 Мбайт (97%)
Библиотека кодирования : LAME3.98.4UUUUUU P

04.12. Перед концом света (Из сборника «Нефритовые чётки»). Вариант 1

Год выпуска: 2013
Исполнитель: Александр Клюквин
Жанр: Детектив
Издательство: ИД «Союз», Покидышевъ и сыновья
Тип аудиокниги: аудиокнига
Аудио кодек: MP3
Битрейт аудио: 112 kbps, 44 kHz, Stereo
Время звучания: 04:54:01
Описание:
Cело Богомилово, Архангельская губерния, 1897 год. В России объявляется государственная перепись населения. В имперской глубинке, где процветает старообрядчество, на фоне подготовки к этому процессу происходит череда загадочных суицидальных ритуалов самозакапывания.
Свидетель происходящего Эраст Петрович Кузнецов (псевдоним, под которым Фандорин нелегально появляется на Родине) вместе с группой полезных помощников (среди которых бывший старообрядец, психолог, полицейский урядник) пытается предотвратить катастрофу всероссийского масштаба.

Media Info

Общее
Полное имя : [Pirat.ca]_Akunin_Sobranie.Sochinenii_Audio_Chast.2\04. Приключения Эраста Фандорина\12. Перед концом света (Из сборника «Нефритовые чётки»). Вариант 1\Pered_konzom_sveta_01.mp3
Формат : MPEG Audio
Размер файла : 2,77 Мбайт
Продолжительность : 3 м. 27 с.
Режим общего битрейта : Постоянный
Общий поток : 112 Кбит/сек
Альбом : Сборник Нефритовые четки
Альбом/Исполнитель : Б.Акунин
Трек : Перед концом света 01
Исполнитель : Б.Акунин
Жанр : Other
Аудио
Формат : MPEG Audio
Версия формата : Version 1
Профиль формата : Layer 3
Режим : Joint stereo
Расширение режима : MS Stereo
Продолжительность : 3 м. 27 с.
Вид битрейта : Постоянный
Битрейт : 112 Кбит/сек
Каналы : 2 канала
Частота : 44,1 КГц
Метод сжатия : С потерями
Размер потока : 2,77 Мбайт (100%)

06. Жанры

06.03. Фантастика. Вариант 3

Год выпуска: 2014
Исполнитель: Сергей Чонишвили
Жанр: Фантастика
Издательство: Аудиокнига
Тип аудиокниги: аудиокнига
Аудио кодек: MP3
Битрейт аудио: 64 kbps, 24 kHz, Joint Stereo
Время звучания: 08:32:49
Описание:
10 мая 1980 года в Подмосковье произошла страшная автокатастрофа. Разбился автобус. Погибли все, кроме двух подростков. За секунду до трагедии они увидели перед машиной столб белого света. И обрели уникальный дар: один стал телепатом, второй приобрел невероятную скорость и невиданную силу. И 10 лет спустя, в августе 1991-го эти таланты пригодились…

Media Info

Общее
Полное имя : [Pirat.ca]_Akunin_Sobranie.Sochinenii_Audio_Chast.2\06. Жанры\06.03. Фантастика. Вариант 3\01_01.mp3
Формат : MPEG Audio
Размер файла : 18,0 Мбайт
Продолжительность : 39 м.
Режим общего битрейта : Постоянный
Общий поток : 64,0 Кбит/сек
Альбом : Фантастика
Альбом/Исполнитель : Борис Акунин
Трек : Часть 1.Глава 1
Исполнитель : Борис Акунин
Жанр : Аудиокнига
Дата записи : 2014
Библиотека кодирования : LAME3.99.5
Аудио
Формат : MPEG Audio
Версия формата : Version 2
Профиль формата : Layer 3
Режим : Joint stereo
Расширение режима : MS Stereo
Продолжительность : 39 м.
Вид битрейта : Постоянный
Битрейт : 64,0 Кбит/сек
Каналы : 2 канала
Частота : 24,0 КГц
Метод сжатия : С потерями
Размер потока : 18,0 Мбайт (100%)
Библиотека кодирования : LAME3.99.5

07. Без цикла

07.03. Аристономия. Вариант 1

Год выпуска: 2013
Исполнитель: Александр Клюквин
Жанр: Детектив
Издательство: ИД «Союз», Покидышевъ и сыновья
Тип аудиокниги: аудиокнига
Аудио кодек: MP3
Битрейт аудио: 256 kbps, 44 kHz, Stereo
Время звучания: 19:02:38
Описание:
Борис Акунин назвал свой роман «Аристономия» «первым серьезным романом в своей жизни». Он работал над «Аристономией» несколько лет и по собственному признанию закончить его ему помогли политические события, произошедшие в России в конце 2011 - начале 2012 года.
Действие романа разворачивается в России времен революции и гражданской войны. Как и во всех других произведениях автора, вас ждут увлекательный и захватывающий сюжет, но все же, в этот раз, на первый план выступят духовные поиски героев, их размышления и роли интеллигенции в судьбе России, о революции и любви.

Media Info

Общее
Полное имя : [Pirat.ca]_Akunin_Sobranie.Sochinenii_Audio_Chast.2\07. Без цикла\03. Аристономия\01-01.mp3
Формат : MPEG Audio
Размер файла : 9,68 Мбайт
Продолжительность : 5 м. 12 с.
Режим общего битрейта : Постоянный
Общий поток : 256 Кбит/сек
Альбом : Аристономия
Альбом/Исполнитель : Клюквин Александр
Трек : Из клетчатой тетради. Предисловие.
Трек/Положение : 001
Трек/Всего : 143
Исполнитель : Акунин-Чхартишвили Борис
Издатель : Союз, ПокидышевЪ и сыновья
Жанр : Аудиокнига
Дата записи : 2013
Обложка : Yes
Тип обложки : Cover (front)
MIME-тип обложки : image/jpeg
Примечание : Читает: Клюквин Александр
Engineer : ngineer
Аудио
Формат : MPEG Audio
Версия формата : Version 1
Профиль формата : Layer 3
Продолжительность : 5 м. 12 с.
Вид битрейта : Постоянный
Битрейт : 256 Кбит/сек
Каналы : 2 канала
Частота : 44,1 КГц
Метод сжатия : С потерями
Размер потока : 9,54 Мбайт (98%)

08. «Гарнир» к «Истории Российского Государства»

08.01. Огненный перст. Плевок дьявола. Князь Клюква. Вариант 1

Год выпуска: 2013
Исполнители: Борис Плотников, Алёна Бабенко, Максим Суханов
Жанр: Историческая библиотека
Издательство: Аудиокнига
Тип аудиокниги: аудиокнига
Аудио кодек: MP3
Битрейт аудио: 47-53 kbps, 44 kHz, Stereo
Время звучания: 14:31:59
Описание:
«В качестве гарнира к первому тому «Истории Российского Государства»
выйдет еще книга повестей, действие которых происходит в ту же эпоху.
Любители Фандорина-Брусникина, это чтение для вас. Надеюсь, не заскучаете…»
Борис Акунин

Три повести, входящие в эту книгу, посвящены жизни Древней Руси. Это начало очень длинного, на тысячу лет, рассказа о взлетах и падениях одного рода, живущего в России с незапамятных времен. Сага является художественным сопровождением многотомной «Истории Российского государства», первый том которой выходит одновременно с «Огненным перстом»

Media Info

Общее
Полное имя : [Pirat.ca]_Akunin_Sobranie.Sochinenii_Audio_Chast.2\08. «Гарнир» к «Истории Российского Государства»\01. Огненный перст. Плевок дьявола. Князь Клюква\01_01.mp3
Формат : MPEG Audio
Размер файла : 4,12 Мбайт
Продолжительность : 12 м.
Режим общего битрейта : Переменный
Общий поток : 46,5 Кбит/сек
Альбом : Огненный перст
Альбом/Исполнитель : Борис Плотников
Трек : 01
Трек/Положение : 01
Исполнитель : Борис Акунин
Жанр : Audiobook
Дата записи : 2013
Библиотека кодирования : LAME3.99r
Обложка : Yes
Тип обложки : Cover (front)
MIME-тип обложки : image/jpeg
Аудио
Формат : MPEG Audio
Версия формата : Version 1
Профиль формата : Layer 3
Режим : Joint stereo
Продолжительность : 12 м.
Вид битрейта : Переменный
Битрейт : 46,5 Кбит/сек
Минимальный битрейт : 32,0 Кбит/сек
Каналы : 2 канала
Частота : 44,1 КГц
Метод сжатия : С потерями
Размер потока : 4,03 Мбайт (98%)
Библиотека кодирования : LAME3.99r
Настройки программы : -m j -V 8 -q 5 -lowpass 15.2 --vbr-new -b 32

09. Под псевдонимом Анна Борисова

09.01. Там... Вариант 1

Год выпуска: 2014
Исполнитель: Егор Бероев
Жанр: Фантастика
Издательство: Аудиокнига
Тип аудиокниги: аудиокнига
Аудио кодек: MP3
Битрейт аудио: 224 kbps, 44 kHz, Joint Stereo
Время звучания: 07:12:45
Описание:
«Там…» - это роман-предположение о том, что ожидает каждого из нас по Ту Сторону. Герои романа проделывают этот роковой путь всяк по-своему. Одни - дорогой, которая проложена христианством, исламом или буддизмом. Другие - более причудливыми маршрутами. Хотите узнать, что сулят человеку Вера и Безверие? Тогда эта аудиокнига, одновременно познавательная, страшная и смешная, для Вас.

Media Info

Общее
Полное имя : [Pirat.ca]_Akunin_Sobranie.Sochinenii_Audio_Chast.2\09. Под псевдонимом Анна Борисова\09.01. Там... Вариант 1\0-01-Анна.mp3
Формат : MPEG Audio
Размер файла : 29,5 Мбайт
Продолжительность : 18 м.
Режим общего битрейта : Постоянный
Общий поток : 224 Кбит/сек
Альбом : Там...
Альбом/Исполнитель : Егор Бероев
Трек : Анна
Трек/Положение : 1
Трек/Всего : 49
Исполнитель : Анна Борисова
Жанр : аудиокнига
Дата записи : 2014
Библиотека кодирования : LAME3.97
Обложка : Yes
Тип обложки : Cover (front)
MIME-тип обложки : image/jpeg
Аудио
Формат : MPEG Audio
Версия формата : Version 1
Профиль формата : Layer 3
Режим : Joint stereo
Продолжительность : 18 м.
Вид битрейта : Постоянный
Битрейт : 224 Кбит/сек
Каналы : 2 канала
Частота : 44,1 КГц
Метод сжатия : С потерями
Размер потока : 29,1 Мбайт (99%)
Библиотека кодирования : LAME3.97

09.01. Там... Вариант 2

Год выпуска: 2011
Исполнитель: Игорь Князев
Жанр: Фантастика
Издательство: The Black Box Publishing
Тип аудиокниги: аудиокнига
Аудио кодек: MP3
Битрейт аудио: 192 kbps, 44 kHz, Stereo
Время звучания: 06:41:50
Описание:
Этот роман, одновременно страшный и смешной, пробует дать ответ на вопрос, который все хотят, но боятся задать: что ожидает человека после смерти? Перед вами почти энциклопедическое исследование всех основных гипотез, как канонически-конфессиональных, так и нерелигиозных, о том, как устроен Загробный Мир. Похоже, что Анна Борисова уже побывала «там» на экскурсии и хочет поделиться с нами своими впечатлениями…

Media Info

Общее
Полное имя : [Pirat.ca]_Akunin_Sobranie.Sochinenii_Audio_Chast.2\09. Под псевдонимом Анна Борисова\09.01. Там... Вариант 2\01_TAM.mp3
Формат : MPEG Audio
Размер файла : 8,50 Мбайт
Продолжительность : 6 м. 8 с.
Режим общего битрейта : Постоянный
Общий поток : 192 Кбит/сек
Альбом : Анна Борисова - Там...
Альбом/Исполнитель : Игорь Князев
Трек : 0.01 Действующие лица. Анна - 01
Трек/Положение : 01
Трек/Всего : 72
Исполнитель : Игорь Князев
Композитор : Eric Serra, Shpongle
Жанр : аудиокнига
Дата записи : 2011
Обложка : Yes
Тип обложки : Cover (front)
MIME-тип обложки : image/jpg
Примечание : The Black Box Publishing
Аудио
Формат : MPEG Audio
Версия формата : Version 1
Профиль формата : Layer 3
Продолжительность : 6 м. 9 с.
Вид битрейта : Постоянный
Битрейт : 192 Кбит/сек
Каналы : 2 канала
Частота : 44,1 КГц
Метод сжатия : С потерями
Размер потока : 8,44 Мбайт (99%)

09.01. Там... Вариант 3

Прочитано по изданию: М., КоЛибри, 2008
Год выпуска: 2012
Исполнитель: Надежда Винокурова
Жанр: Фантастика
Издательство: Нигде не купишь (Клуб любителей аудиокниг)
Тип аудиокниги: аудиокнига
Аудио кодек: MP3
Битрейт аудио: 96 kbps, 44 kHz, Mono
Время звучания: 07:14:21
Описание:
"Там..." - это роман-предположение о том, что ожидает каждого из нас по Ту Сторону. Герои романа проделывают этот роковой путь всяк по-своему. Одни - дорогой, которая проложена христианством, исламом или буддизмом Другие более причудливыми маршрутами. Хотите узнать, что сулят человеку Вера и Безверие? Тогда эта книга, одновременно познавательная, страшная и смешная, для Вас.

Media Info

Общее
Полное имя : [Pirat.ca]_Akunin_Sobranie.Sochinenii_Audio_Chast.2\09. Под псевдонимом Анна Борисова\09.01. Там... Вариант 3\Borisova_Tam_01.mp3
Формат : MPEG Audio
Размер файла : 3,69 Мбайт
Продолжительность : 5 м. 15 с.
Режим общего битрейта : Постоянный
Общий поток : 96,0 Кбит/сек
Альбом : Там
Трек/Положение : 01
Трек/Всего : 87
Исполнитель : Борисова Анна
Издатель : Клуб Любителей АудиоКниг
Жанр : Blues
Дата записи : 2012
Правообладатель : Нигде Не Купишь
Обложка : Yes
Тип обложки : Cover (front)
MIME-тип обложки : image/jpeg
Примечание : Винокурова Надежда
Аудио
Формат : MPEG Audio
Версия формата : Version 1
Профиль формата : Layer 3
Продолжительность : 5 м. 16 с.
Вид битрейта : Постоянный
Битрейт : 96,0 Кбит/сек
Каналы : 1 канал
Частота : 44,1 КГц
Метод сжатия : С потерями
Размер потока : 3,62 Мбайт (98%)

О Борисе Акунине:

Борис Акунин, настоящее имя - Григорий Шалвович Чхартишвили - родился 20 мая 1956 года в Грузии в семье офицера-артиллериста Шалвы Чхартишвили и учительницы русского языка и литературы Берты Исааковны Бразинской (1923-2007).
В 1958 году семья переехала в Москву. В 1973 году окончил английскую школу № 36. Закончил историко-филологическое отделение Института стран Азии и Африки (МГУ), имеет диплом историка-японоведа. Занимался литературным переводом с японского и английского языков. В переводе Чхартишвили изданы японские авторы Юкио Мисима, Кэндзи Маруяма, Ясуси Иноуэ, Масахико Симада, Кобо Абэ, Синъити Хоси, Такэси Кайко, Сёхэй Оока, а также представители американской и английской литературы (Корагессан Бойл, Малкольм Брэдбери, Питер Устинов и др.)
Работал заместителем главного редактора журнала «Иностранная литература» (1994-2000), главный редактор 20-томной «Антологии японской литературы», председатель правления мегапроекта «Пушкинская библиотека» (Фонд Сороса).
С 1998 года Григорий Чхартишвили пишет художественную прозу под псевдонимом «Борис Акунин». Японское слово «акунин» (яп. 悪人) не имеет адекватного перевода на русский язык. Приблизительно его можно перевести как «злой человек», «разбойник», «человек, не соблюдающий законов». Подробнее об этом слове можно узнать в одной из книг Б. Акунина (Г. Чхартишвили) «Алмазная колесница». Критические и документальные работы Григорий Чхартишвили публикует под своим настоящим именем.
Помимо принёсших ему известность романов и повестей из серии «Новый детектив» («Приключения Эраста Фандорина»), публикуемых издательством «Захаров», Акунин создал серии «Провинциальный детектив» («Приключения сестры Пелагии»), «Приключения магистра», «Жанры» и был составителем сборника наиболее мрачных произведений современных западных беллетристов «Лекарство от скуки».
29 апреля 2009 года Борис Акунин стал кавалером ордена Восходящего солнца четвертой степени. Награждение состоялось 20 мая в японском посольстве в Москве.
10 августа 2009 года за вклад в развитие культурных связей между Россией и Японией Борису Акунину была присуждена премия действующего под эгидой правительства Японского фонда.
Яндекс.Метрика
Рейтинг@Mail.ru