И явился Дьявол / Here Comes the Devil / Ahí va el diablo (Адриан Гарсия Боглиано / Adrián García Bogliano) [2012 г., ужасы, триллер, HDRip] VO

 

Создавать темы 30-Мар-2014 03:22

-И явился Дьявол / Here Comes the Devil / Ahí va el diablo-- Производство: Мексика, США, Morbido Films, MPI Media Group, Salto de Fe Films
Год выпуска: 2012 г.
Жанр: ужасы, триллер
Продолжительность: 01:37:37
Перевод: Любительский (одноголосый, закадровый) [ХихиДок]
Режиссер: Адриан Гарсия Боглиано / Adrián García Bogliano-В ролях: Франциско Баррейро, Лаура Каро, Алан Мартинез, Мишель Гарсиа, Энрике Сен-Мартен, Мишель Эстрада, Джесика Ирис, Дана Дорел-Описание: Муж с женой вместе с детьми поехали на отдых. Чтобы дети не мешали родителям заниматься взрослыми утехами, они отпустили их на прогулку одних. Во время занятий любовью, родители не заметили течения времени и не обратили внимание на то, что дети должны были давно уже вернуться. Их поисками занялась полиция. И находит детей спустя сутки. Казалось бы: все хорошо. Но после общения детей с психологом, тот замечает, что ребята были подвергнуты сексуальному насилию. Дети же молчат и ничего не говорят о произошедшем, а в доме, между тем, начинают происходить странные вещи...-Качество видео: HDRip
Контейнер: AVI
Видео кодек: XviD
Аудио кодек: AC3
Видео: 720x304, 1947 kbps, 24 fps, 0.371 bits/pixel
Аудио: 192 kbps, 2 ch, 48 kHz
Cубтитры: отсутствуют

Доп. информация

Релиз группы: Dream Team
Рип от: ShuLeR
Озвучка: Любительский (одноголосый закадровый) Хихикающий доктор
Рип с BDRip 720р от: Cinemania
Дата релиза: 29.03.2014

Media Info

General
Complete name : H:TorrentsHere.Comes.The.Devil.2012.HDRip.by.ShuLeR.avi
Format : AVI
Format/Info : Audio Video Interleave
File size : 1.47 GiB
Duration : 1h 37mn
Overall bit rate : 2 148 Kbps
Writing application : VirtualDubMod 1.5.10.3 | www.virtualdub-fr.org || (build 2550/release)
Writing library : VirtualDubMod build 2550/release
Video
ID : 0
Format : MPEG-4 Visual
Format profile : Advanced [email protected]
Format settings, BVOP : 1
Format settings, QPel : No
Format settings, GMC : No warppoints
Format settings, Matrix : Default (MPEG)
Codec ID : XVID
Codec ID/Hint : XviD
Duration : 1h 37mn
Bit rate : 1 947 Kbps
Width : 720 pixels
Height : 304 pixels
Display aspect ratio : 2.35:1
Frame rate : 23.976 fps
Color space : YUV
Chroma subsampling : 4:2:0
Bit depth : 8 bits
Scan type : Progressive
Compression mode : Lossy
Bits/(Pixel*Frame) : 0.371
Stream size : 1.33 GiB (91%)
Writing library : XviD 1.2.1 (UTC 2008-12-04)
Audio
ID : 1
Format : AC-3
Format/Info : Audio Coding 3
Mode extension : CM (complete main)
Format settings, Endianness : Big
Codec ID : 2000
Duration : 1h 37mn
Bit rate mode : Constant
Bit rate : 192 Kbps
Channel count : 2 channels
Channel positions : Front: L R
Sampling rate : 48.0 KHz
Bit depth : 16 bits
Compression mode : Lossy
Stream size : 134 MiB (9%)
Alignment : Split accross interleaves
Interleave, duration : 42 ms (1.00 video frame)
Interleave, preload duration : 500 ms

Скриншоты

Яндекс.Метрика
Рейтинг@Mail.ru