Лекарь: Ученик Авиценны / The Physician (Филипп Штёльцль / Philipp Stölzl) [2013 г., драма, приключения, HDRip] Dub [Лицензия]

 

Создавать темы 29-Мар-2014 19:54

-Лекарь: Ученик Авиценны / The Physician-«Через пески времени к свету»- Производство: Германия , UFA Cinema, ARD Degeto Film, Beta Cinema
Год выпуска: 2013 г.
Жанр: драма, приключения
Продолжительность: 02:34:41
Мировая премьера: 25 декабря 2013
Российская премьера: 6 февраля 2014, «Люксор»
Дата выхода DVD: 1 апреля 2014, «Lizard Cinema Trade»
Дата выхода Blu-Ray: 1 апреля 2014, «Lizard Cinema Trade»
Перевод: Профессиональный (полное дублирование) [Лицензия]-Режиссер: Филипп Штёльцль / Philipp Stölzl
В ролях: Том Пэйн, Бен Кингсли, Эмма Ригби, Стеллан Скарсгард, Оливье Мартинес, Элиас ЭмБарек, Майкл Джибсон, Стэнли Таунсенд, Майкл Маркус Морган, Адам Томас Райт-Описание:-Англия, XI век. Мать десятилетнего Роба Коула умирает в страшных мучениях: никто не знает ни природы её болезни, ни лекарства против неё. Маленький Роб, потрясенный до глубины души, во что бы то ни стало стремится разгадать эту тайну.Ему суждено пройти долгий путь, от Англии до Персии, его учителями становятся сначала обыкновенный шарлатан Барбер, а потом — великий лекарь Авиценна. Мудрый учитель видит в Робе необыкновенный талант к медицине, но советует ему не спешить делать вещи, которые не соответствуют веку. Но Роб ни перед чем не останавливается в своем желании научиться спасать людей от смерти, и над его собственной жизнью нависает угроза, ведь он дважды пошел против предрассудков: использовал для научных исследований тело человека и полюбил женщину, отданную в жены другому.- -Качество видео: HDRip
Контейнер: AVI
Видео кодек: XviD
Аудио кодек: AC3
Видео: XviD MPEG-4, 720x304 (2.37:1), 891 kbps avg, 24.000 fps, 0.17 bit/pixel
Аудио: AC3 Dolby Digital, 448 kbps, 3/2 (L,C,R,l,r) + LFE ch, 48 kHz
Cубтитры: отсутствуют

Media Info

General
Complete name                            : D:\1ekar.U4en1k.Asven4ist9.2013.D.HDRip.1400MB.avi
Format                                   : AVI
Format/Info                              : Audio Video Interleave
File size                                : 1.46 GiB
Duration                                 : 2h 34mn
Overall bit rate                         : 1 349 Kbps
Writing application                      : VirtualDubMod 1.5.10.2 (build 2540/release)
Writing library                          : VirtualDubMod build 2540/release
Video
ID                                       : 0
Format                                   : MPEG-4 Visual
Format profile                           : Advanced [email protected]
Format settings, BVOP                    : 2
Format settings, QPel                    : No
Format settings, GMC                     : No warppoints
Format settings, Matrix                  : Default (MPEG)
Muxing mode                              : Packed bitstream
Codec ID                                 : XVID
Codec ID/Hint                            : XviD
Duration                                 : 2h 34mn
Bit rate                                 : 892 Kbps
Width                                    : 720 pixels
Height                                   : 304 pixels
Display aspect ratio                     : 2.35:1
Frame rate                               : 24.000 fps
Color space                              : YUV
Chroma subsampling                       : 4:2:0
Bit depth                                : 8 bits
Scan type                                : Progressive
Compression mode                         : Lossy
Bits/(Pixel*Frame)                       : 0.170
Stream size                              : 987 MiB (66%)
Writing library                          : XviD 73
Audio
ID                                       : 1
Format                                   : AC-3
Format/Info                              : Audio Coding 3
Mode extension                           : CM (complete main)
Format settings, Endianness              : Big
Codec ID                                 : 2000
Duration                                 : 2h 34mn
Bit rate mode                            : Constant
Bit rate                                 : 448 Kbps
Channel(s)                               : 6 channels
Channel positions                        : Front: L C R, Side: L R, LFE
Sampling rate                            : 48.0 KHz
Bit depth                                : 16 bits
Compression mode                         : Lossy
Stream size                              : 496 MiB (33%)
Alignment                                : Split accross interleaves
Interleave, duration                     : 42 ms (1.00 video frame)
Interleave, preload duration             : 500 ms

Скриншоты

Яндекс.Метрика
Рейтинг@Mail.ru