Сквозь снег / Snowpiercer (Пон Чжун Хо / Bong Joon Ho) [2013 г., фантастика, боевик, драма, BDRip-AVC] VO (Д. Есарев) + Sub (Eng) + Original (Eng)

 

Создавать темы 29-Мар-2014 19:37

-Сквозь снег / Snowpiercer--«AD 2031: the passengers in the train are the only survivors on Earth» Производство: Корея Южная, США Франция Чехия
Год выпуска: 2013 г.
Жанр: фантастика, боевик, драма
Продолжительность: 02:05:54
Мировая премьера: 1 августа 2013
Перевод: Любительский (одноголосый, закадровый) [Д. Есарев]
Оригинальный аудиопоток: английский
Режиссер: Пон Чжун Хо / Bong Joon Ho-В ролях: Крис Эванс, Сон Кан Хо, Тильда Суинтон, Джейми Белл, Октавия Спенсер, Юэн Бремнер, Элисон Пилл, Ко А Сон, Эд Харрис Джон Хёрт-Описание: Земля. Недалекое будущее. Семнадцать лет назад на планете произошла техногенная катастрофа. Там, где раньше росли леса и цвели сады, теперь лежат снег и лед. Жизнь сохранилась лишь в гигантском поезде, без остановки мчащемся по трансевразийской магистрали. В первых вагонах состава живет правящая элита, во множестве последних — простые люди. Жизнь в хвосте поезда напоминает концлагерь — болезни, нищета, беспредел надсмотрщиков. Но именно здесь из среды униженных и оскорбленных восстает человек, способный восстановить справедливость. Однако у каждой благородной идеи есть своя темная сторона, и любая революция пожирает своих детей.-
Качество видео: BDRip-AVC
Контейнер: MKV
Видео кодек: H.264
Аудио кодек: AC3
Видео: MPEG-4 AVC (H 264), 1024x554 (1,85:1), 1579 kbps, 23,976 fps, 0.116 bit/pixel
Аудио: Rus: 48 kHz, AC3 Dolby Digital, 3/2 (L,C,R,l,r) + LFE ch, ~448.00 kbps avg VO (Д.Есарев)
Аудио 2: Eng: 48 kHz, AC3 Dolby Digital, 3/2 (L,C,R,l,r) + LFE ch, ~448.00 kbps avg (Original)
Cубтитры: английские Формат субтитров: softsub (SRT)

Media Info

General
Complete name : W:\Snowpiercer.2013.BDRip-AVC.AVO.Esarev.mkv
Format : Matroska
File size : 2.18 GiB
Duration : 2h 5mn
Overall bit rate : 2 476 Kbps
Encoded date : UTC 2014-03-29 02:59:34
Writing application : mkvmerge v2.9.7 ('Tenderness') built on Jul 1 2009 18:43:35
Writing library : libebml v0.7.7 + libmatroska v0.8.1
Cover : Yes / Yes
Video
ID : 1
Format : AVC
Format/Info : Advanced Video Codec
Format profile : [email protected]
Format settings, CABAC : Yes
Format settings, ReFrames : 10 frames
Muxing mode : Container [email protected]
Codec ID : V_MPEG4/ISO/AVC
Duration : 2h 5mn
Bit rate : 1 579 Kbps
Width : 1 024 pixels
Height : 554 pixels
Display aspect ratio : 16:9
Frame rate : 23.976 fps
Color space : YUV
Chroma subsampling : 4:2:0
Bit depth : 8 bits
Scan type : Progressive
Bits/(Pixel*Frame) : 0.116
Stream size : 1.35 GiB (62%)
Writing library : x264 core 142 r2409+42 04be48a tMod [[email protected]:2:0 X86_64]
Encoding settings : cabac=1 / ref=10 / deblock=1:-2:-2 / analyse=0x3:0x113 / me=umh / subme=11 / psy=1 / fade_compensate=0.00 / psy_rd=1.00:0.00 / mixed_ref=1 / me_range=48 / chroma_me=1 / trellis=2 / 8x8dct=1 / cqm=0 / deadzone=21,11 / fast_pskip=0 / chroma_qp_offset=-2 / threads=12 / lookahead_threads=2 / sliced_threads=0 / nr=0 / decimate=1 / interlaced=0 / bluray_compat=0 / constrained_intra=0 / fgo=0 / bframes=8 / b_pyramid=2 / b_adapt=2 / b_bias=0 / direct=3 / weightb=1 / open_gop=0 / weightp=2 / keyint=250 / keyint_min=23 / scenecut=40 / intra_refresh=0 / rc_lookahead=60 / rc=2pass / mbtree=0 / bitrate=1579 / ratetol=1.0 / qcomp=0.70 / qpmin=0:0:0 / qpmax=69:69:69 / qpstep=4 / cplxblur=20.0 / qblur=0.5 / vbv_maxrate=62500 / vbv_bufsize=78125 / nal_hrd=none / filler=0 / ip_ratio=1.40 / pb_ratio=1.30 / aq=4:0.80 / aq-sensitivity=11.00 / aq-factor=1.00:1.00:1.00 / aq2=1:0.60 / aq2-sensitivity=9.00 / aq2-factor=1.00:1.00:1.00 / aq3=1:[0.60:0.60]:[0.60:0.60]:[0.60:0.60]:[0.60:0.60] / aq3-sensitivity=10.00 / aq3-factor=[1.00:1.00]:[1.00:1.00]:[1.00:1.00] / aq3-boundary=192:64:24
Language : English
Color primaries : BT.709-5, BT.1361, IEC 61966-2-4, SMPTE RP177
Transfer characteristics : BT.709-5, BT.1361
Matrix coefficients : BT.709-5, BT.1361, IEC 61966-2-4 709, SMPTE RP177
Audio #1
ID : 2
Format : AC-3
Format/Info : Audio Coding 3
Mode extension : CM (complete main)
Codec ID : A_AC3
Duration : 2h 5mn
Bit rate mode : Constant
Bit rate : 448 Kbps
Channel(s) : 6 channels
Channel positions : Front: L C R, Side: L R, LFE
Sampling rate : 48.0 KHz
Bit depth : 16 bits
Stream size : 403 MiB (18%)
Title : Есарев
Language : Russian
Audio #2
ID : 3
Format : AC-3
Format/Info : Audio Coding 3
Mode extension : CM (complete main)
Codec ID : A_AC3
Duration : 2h 5mn
Bit rate mode : Constant
Bit rate : 448 Kbps
Channel(s) : 6 channels
Channel positions : Front: L C R, Side: L R, LFE
Sampling rate : 48.0 KHz
Bit depth : 16 bits
Stream size : 403 MiB (18%)
Language : English
Text
ID : 4
Format : UTF-8
Codec ID : S_TEXT/UTF8
Codec ID/Info : UTF-8 Plain Text
Language : English

Скриншоты

Яндекс.Метрика
Рейтинг@Mail.ru