Дубровский (Александр Вартанов, Кирилл Михановский)(2014,Драма) WEBRip

 

Создавать темы 29-Мар-2014 10:39

-Дубровский (2014) WEBRip- Год выпуска: 2014
Производство: Россия, «ТВИНДИ»
Жанр: Драма
Перевод: Не требуется (русский)
Субтитры: Отсутствуют
Дата мировой премьеры: 6 марта 2014
Дата российской премьеры: 6 марта 2014, «DreamTeam»
Дата выхода DVD релиза: 7 апреля 2014, «Новый Диск»
Режиссер: Александр Вартанов, Кирилл Михановский
Продюсер: Евгений Гиндилис
Актеры: Данила Козловский, Клавдия Коршунова, Юрий Цурило, Александр Мезенцев, Игорь Гордин, Дмитрий Поднозов, Елена Дудина, Евгений Вакунов, Артем Кобзев, Любовь Сергеева, Никита Тезин
Описание фильма:
Владимир — успешный столичный банкир и завсегдатай модных клубов, Маша – прилежная студентка юридического факультета и нежная дочь… Ничто не предвещает трагического поворота в судьбе благополучных молодых людей. Однако неожиданная ссора взбалмошных отцов заставляет детей в деталях пережить пушкинскую коллизию. Это классический сюжет криминальной драмы, который перенесен в современность и изложенный современным языком.

Возраст: 16+
Продолжительность: 02:10:23
Качество видео: WEBRip
Видеокодек: XviD
Битрейт видео: 1921 kb/s
Размер кадра: 720x400
Аудиокодек: AC3, 2.0
Битрейт аудио: 320 kb/s

MI

Общее
Полное имя                               : D:\Раздачи\Dubrovskiy.2014.WEBRip.NNM-CLUB.avi
Формат                                   : AVI
Формат/Информация                        : Audio Video Interleave
Профиль формата                          : OpenDML
Размер файла                             : 2,05 Гбайт
Продолжительность                        : 2 ч. 10 м.
Общий поток                              : 2254 Кбит/сек
Программа кодирования                    : VirtualDubModRus 1.5.10.2 (build 2542/release)
Библиотека кодирования                   : VirtualDubMod build 2542/release
Видео
Идентификатор                            : 0
Формат                                   : MPEG-4 Visual
Профиль формата                          : Advanced [email protected]
Параметр BVOP формата                    : 2
Параметр QPel формата                    : Нет
Параметр GMC формата                     : Без точки перехода
Параметр матрицы формата                 : Выборочная
Идентификатор кодека                     : XVID
Идентификатор кодека/Подсказка           : XviD
Продолжительность                        : 2 ч. 10 м.
Битрейт                                  : 1921 Кбит/сек
Ширина                                   : 720 пикселей
Высота                                   : 400 пикселей
Соотношение сторон                       : 16:9
Частота кадров                           : 25,000 кадров/сек
Цветовое пространство                    : YUV
Субдискретизация насыщенности            : 4:2:0
Битовая глубина                          : 8 бит
Тип развёртки                            : Прогрессивная
Метод сжатия                             : С потерями
Бит/(Пиксели*Кадры)                      : 0.267
Размер потока                            : 1,75 Гбайт (85%)
Библиотека кодирования                   : XviD 1.2.1 (UTC 2008-12-04)
Аудио
Идентификатор                            : 1
Формат                                   : AC-3
Формат/Информация                        : Audio Coding 3
Расширение режима                        : CM (complete main)
Параметр Endianness формата              : Big
Идентификатор кодека                     : 2000
Продолжительность                        : 2 ч. 10 м.
Вид битрейта                             : Постоянный
Битрейт                                  : 320 Кбит/сек
Каналы                                   : 2 канала
Расположение каналов                     : Front: L R
Частота                                  : 48,0 КГц
Битовая глубина                          : 16 бит
Метод сжатия                             : С потерями
Размер потока                            : 298 Мбайт (14%)
Выравнивание                             : Разделение по промежуткам
Продолжительность промежутка             : 40  мс. (1,00 видеокадр)
Время предзагрузки промежутка            : 500  мс.
Скриншоты:
Яндекс.Метрика
Рейтинг@Mail.ru