[ Сегодня на трекере фрилич! Идет свободное скачивание без начисления Download ]

Жизненные циклы / Жизнь велосипедом / Жизнь велосипедиста / Life Cycles (Дерек Франковский / Derek Frankowski, Райан Гибб / Ryan Gibb) [2010 г., Документальный, Вело-спорт, BDRip, 720p] VO (Евгений Малуха) [Sub Rus, + Original (Eng)]

 

Создавать темы 29-Мар-2014 04:02

Жизненные циклы / Жизнь велосипедом / Жизнь велосипедиста / Life Cycles
-Производство: Канада, Stance Films
Жанр: Документальный, Вело-спорт
Год выпуска: 2010 г.
Продолжительность: 00:46:59
Мировая премьера: 21 сентября 2010
Перевод: Профессиональный (одноголосый, закадровый) (Евгений Малуха)
Автор(ы) перевода: Переведено и озвучено студией "Омикрон"
Оригинальный аудиопоток: английский-Режиссер: Дерек Франковский / Derek Frankowski, Райан Гибб / Ryan Gibb
Рассказчик: Грэхэм Трэйси / Graham Tracey-В ролях: Грэхам Агассиз / Graham Agassiz, Майк Хопкинс / Mike Hopkins, Мэтт Хантер / Matt Hunter, Кэм МакКаул / Cam McCaul, Райли МакИнтош / Riley McIntosh, Томас Сандерхэм / Thomas Sanderham, Ивэн Шварц / Evan Schwartz, Брэндон Семенюк / Brandon Semenuk, Томас Вандерхам / Thomas Vanderham-Описание: Stance Films и их новая работа Life Cycles, не имеют аналогов, такого еще не было. Теперь все имеют возможность увидеть самый ожидаемый байкерский фильм сезона 2010 года. Фильм расскажет захватывающую историю велосипеда, от его создания до его окончательной гибели.-Качество видео: BDRip
Контейнер: MKV
Стандарт разрешения: 720p
Видео кодек: H.264
Аудио кодек: AC3
Видео: 5553 Кбит/сек; 1280*640 (2,000); в 23,976 кадра/сек; AVC; 0.283 Бит/(Пиксели*Кадры)
Аудио: Русский; 640 Кбит/сек; 48,0 КГц; 16 бит; 6 каналов; АС-3
Аудио #2: Английский; 640 Кбит/сек; 48,0 КГц; 16 бит; 6 каналов; АС-3
Cубтитры: русские UTF-8

Media Info

Общее
Уникальный идентификатор : 180966440632765272229980283321471592858 (0x8824DE62C147E520955FFD7ED701E99A)
Формат : Matroska
Версия формата : Version 2
Размер файла : 2,29 Гбайт
Продолжительность : 47 м.
Общий поток : 6972 Кбит/сек
Дата кодирования : UTC 2011-10-03 13:27:40
Программа кодирования : mkvmerge v4.9.1 ('Ich will') сборка от Jul 11 2011 23:53:15
Библиотека кодирования : libebml v1.2.1 + libmatroska v1.1.1
Видео
Идентификатор : 1
Формат : AVC
Формат/Информация : Advanced Video Codec
Профиль формата : [email protected]
Параметр CABAC формата : Да
Параметр ReFrames формата : 10 кадров
Идентификатор кодека : V_MPEG4/ISO/AVC
Продолжительность : 47 м.
Битрейт : 5553 Кбит/сек
Ширина : 1280 пикселей
Высота : 640 пикселей
Соотношение сторон : 2,000
Режим частоты кадров : Постоянный
Частота кадров : 23,976 кадра/сек
Цветовое пространство : YUV
Субдискретизация насыщенности : 4:2:0
Битовая глубина : 8 бит
Тип развёртки : Прогрессивная
Бит/(Пиксели*Кадры) : 0.283
Размер потока : 1,82 Гбайт (80%)
Библиотека кодирования : x264 core 115 r1995 c1e60b9
Настройки программы : cabac=1 / ref=10 / deblock=1:-3:-3 / analyse=0x3:0x113 / me=umh / subme=10 / psy=1 / psy_rd=1.00:0.00 / mixed_ref=1 / me_range=32 / chroma_me=1 / trellis=2 / 8x8dct=1 / cqm=0 / deadzone=21,11 / fast_pskip=0 / chroma_qp_offset=-2 / threads=3 / sliced_threads=0 / nr=0 / decimate=1 / interlaced=0 / bluray_compat=0 / constrained_intra=0 / bframes=8 / b_pyramid=2 / b_adapt=2 / b_bias=0 / direct=3 / weightb=1 / open_gop=0 / weightp=2 / keyint=250 / keyint_min=23 / scenecut=40 / intra_refresh=0 / rc_lookahead=60 / rc=crf / mbtree=0 / crf=17.0 / qcomp=0.60 / qpmin=0 / qpmax=69 / qpstep=4 / vbv_maxrate=50000 / vbv_bufsize=62500 / crf_max=0.0 / nal_hrd=none / ip_ratio=1.40 / pb_ratio=1.30 / aq=1:0.80
Язык : English
Default : Да
Forced : Нет
Аудио #1
Идентификатор : 2
Формат : AC-3
Формат/Информация : Audio Coding 3
Расширение режима : CM (complete main)
Параметр Endianness формата : Big
Идентификатор кодека : A_AC3
Продолжительность : 47 м.
Вид битрейта : Постоянный
Битрейт : 640 Кбит/сек
Каналы : 6 каналов
Расположение каналов : Front: L C R, Side: L R, LFE
Частота : 48,0 КГц
Битовая глубина : 16 бит
Метод сжатия : С потерями
Размер потока : 215 Мбайт (9%)
Заголовок : Е.Малуха
Язык : Russian
Default : Да
Forced : Нет
Аудио #2
Идентификатор : 3
Формат : AC-3
Формат/Информация : Audio Coding 3
Расширение режима : CM (complete main)
Параметр Endianness формата : Big
Идентификатор кодека : A_AC3
Продолжительность : 47 м.
Вид битрейта : Постоянный
Битрейт : 640 Кбит/сек
Каналы : 6 каналов
Расположение каналов : Front: L C R, Side: L R, LFE
Частота : 48,0 КГц
Битовая глубина : 16 бит
Метод сжатия : С потерями
Размер потока : 215 Мбайт (9%)
Заголовок : Оригинал
Язык : English
Default : Нет
Forced : Нет
Текст
Идентификатор : 4
Формат : UTF-8
Идентификатор кодека : S_TEXT/UTF8
Идентификатор кодека/Информация : UTF-8 Plain Text
Заголовок : Полные (Е.Малуха)
Язык : Russian
Default : Да
Forced : Нет
Меню
00:00:00.000 : :Chapter 01
00:01:30.340 : :Chapter 02
00:03:27.248 : :Chapter 03
00:06:24.425 : :Chapter 04
00:10:00.891 : :Chapter 05
00:12:31.208 : :Chapter 06
00:16:52.845 : :Chapter 07
00:18:54.800 : :Chapter 08
00:20:43.951 : :Chapter 09
00:24:59.164 : :Chapter 10
00:26:50.775 : :Chapter 11
00:32:35.036 : :Chapter 12
00:34:47.835 : :Chapter 13
00:39:46.467 : :Chapter 14
00:41:03.961 : :Chapter 15
00:43:37.990 : :Chapter 16
00:46:57.981 : :Chapter 17

Еще скриншоты

Яндекс.Метрика
Рейтинг@Mail.ru