Реальная белка / The Nut Job (Питер Лепениотис / Peter Lepeniotis) [2014 г., мультфильм, комедия, приключения, семейный, HDTVRip] VO [Vano] + Original (Eng)

 

Создавать темы 29-Мар-2014 03:58

- -Реальная белка / The Nut Job-«Береги свои орешки!»- Производство: Канада , Корея Южная , США , Gulfstream Pictures, Red Rover International, ToonBox Entertainment
Год выпуска: 2014 г.
Жанр: мультфильм, комедия, приключения, семейный
Продолжительность: 01:17:56
Мировая премьера: 11 января 2014
Российская премьера: 17 апреля 2014, «Двадцатый Век Фокс СНГ», «Каравелла DDC»
Перевод: Любительский (одноголосый, закадровый) [Vano]
Оригинальный аудиопоток: английский-Режиссер: Питер Лепениотис / Peter Lepeniotis
В ролях: Уилл Арнетт, Брендан Фрейзер, Лиам Нисон, Кэтрин Хейгл, Стивен Лэнг, Майя Рудольф, Джефф Данэм, Гэбриел Иглесиас, Сара Гадон, Джеймс Ранкин-Описание:-Пытаясь выжить в городе, неразлучные друзья — белка Злюк и крысёнок Бадди натыкаются на магазин, до краёв набитый их любимым лакомством — орехами. Чувствуя, что «мечты сбываются», приятели планируют величайшее ограбление в истории грызунов. Но тут совсем некстати нарисовались бедные родственники из парка — прямо 13 друзей арахиса! Однако им всем невдомёк, что магазин орехов — лишь прикрытие для банды грабителей, которые намерены вырыть туннель под банк и подменить мешки с деньгами на мешки с теми самыми орехами.-Качество видео: HDTVRip
Контейнер: AVI
Видео кодек: XviD
Аудио кодек: MP3
Видео: XviD MPEG-4, 720x384 (1.88:1), 1897 kbps avg, 25 fps, 0.27 bit/pixel
Аудио: Русский: MPEG Layer 3, 192.00 kbps avg, 2 ch, 48 kHz [VO]
Аудио #2: Английский: AC3 Dolby Digital, 256 kbps, 1/0 (C) ch, 48 kHz [Original]

Media Info

General
Complete name                            : D:\Реальная белка.2013.L1.HDTVRip.avi
Format                                   : AVI
Format/Info                              : Audio Video Interleave
File size                                : 1.34 GiB
Duration                                 : 1h 21mn
Overall bit rate                         : 2 348 Kbps
Writing application                      : VirtualDubMod 1.5.10.2 (build 2540/release)
Writing library                          : VirtualDubMod build 2540/release
Video
ID                                       : 0
Format                                   : MPEG-4 Visual
Format profile                           : Advanced [email protected]
Format settings, BVOP                    : 2
Format settings, QPel                    : No
Format settings, GMC                     : No warppoints
Format settings, Matrix                  : Default (H.263)
Muxing mode                              : Packed bitstream
Codec ID                                 : XVID
Codec ID/Hint                            : XviD
Duration                                 : 1h 21mn
Bit rate                                 : 1 898 Kbps
Width                                    : 720 pixels
Height                                   : 384 pixels
Display aspect ratio                     : 1.85:1
Frame rate                               : 25.000 fps
Color space                              : YUV
Chroma subsampling                       : 4:2:0
Bit depth                                : 8 bits
Scan type                                : Progressive
Compression mode                         : Lossy
Bits/(Pixel*Frame)                       : 0.275
Stream size                              : 1.08 GiB (81%)
Writing library                          : XviD 64
Audio #1
ID                                       : 1
Format                                   : MPEG Audio
Format version                           : Version 1
Format profile                           : Layer 3
Codec ID                                 : 55
Codec ID/Hint                            : MP3
Duration                                 : 1h 19mn
Bit rate mode                            : Constant
Bit rate                                 : 192 Kbps
Channel(s)                               : 2 channels
Sampling rate                            : 48.0 KHz
Compression mode                         : Lossy
Stream size                              : 109 MiB (8%)
Alignment                                : Aligned on interleaves
Interleave, duration                     : 41 ms (1.03 video frame)
Interleave, preload duration             : 504 ms
Audio #2
ID                                       : 2
Format                                   : AC-3
Format/Info                              : Audio Coding 3
Mode extension                           : CM (complete main)
Format settings, Endianness              : Big
Codec ID                                 : 2000
Duration                                 : 1h 19mn
Bit rate mode                            : Constant
Bit rate                                 : 256 Kbps
Channel(s)                               : 1 channel
Channel positions                        : Front: C
Sampling rate                            : 48.0 KHz
Bit depth                                : 16 bits
Compression mode                         : Lossy
Stream size                              : 146 MiB (11%)
Alignment                                : Aligned on interleaves
Interleave, duration                     : 41 ms (1.03 video frame)
Interleave, preload duration             : 512 ms

Скриншоты

Яндекс.Метрика
Рейтинг@Mail.ru