Властелины времени / Les maitres du temps (Рене Лалу / René Laloux) [1982 г., приключения, фантастика, DVDRip] Dub

 

Создавать темы 29-Мар-2014 03:55

-Властелины времени / Les maitres du temps-- Производство: Франция, Великобритания, Германия (ФРГ), Швейцария, Венгрия
Режиссер: Рене Лалу / René Laloux
Жанр: приключения, фантастика
Год выпуска: 1982 г.
Продолжительность: 01:15:09
Перевод: Профессиональный (полное дублирование)
Роли озвучивали: Вадим Спиридонов, Всеволод Ларионов, Ольга Гаспарова, Алексей Инжеватов, Мария Виноградова-Описание: Этот полнометражный мультфильм был снят по роману «Сирота с Пердида» французского писателя-фантаста Стефана Вуля. Пьель, 7-ми летний мальчик попал в пустыню планеты Пердиде, уцелев после атаки гигантских ос. На вызов о помощи откликнулся друг его отца Джаффар. Он держит контакт с ребенком и спешит через пространство к Пердиде… Джаффар еще не знает, что ему придется столкнуться с Властелинами Времени, и спасать нужно будет не только ребенка, но и его родную планету…-Качество видео: DVDRip
Контейнер: AVI
Видео кодек: XviD
Аудио кодек: MP3
Видео: 672x400; 2298 kbps; 25 fps; 0.342 bit/pixel
Аудио: 128.00 kbps; 2 ch; 44.1 kHz
Cубтитры: отсутствуют

Награды

1982 год - Премия за лучший детский фильм на фестивале Fantafestival.

Media Info

Общее
Полное имя : E:\Torrent\Vlastelin_vremeni.torrent.avi
Формат : AVI
Формат/Информация : Audio Video Interleave
Размер файла : 1,28 Гбайт
Продолжительность : 1 ч. 15 м.
Общий поток : 2436 Кбит/сек
Библиотека кодирования : VirtualDub build 21540/release
Видео
Идентификатор : 0
Формат : MPEG-4 Visual
Профиль формата : Advanced [email protected]
Параметр BVOP формата : Нет
Параметр QPel формата : Нет
Параметр GMC формата : Без точки перехода
Параметр матрицы формата : Выборочная
Идентификатор кодека : XVID
Идентификатор кодека/Подсказка : XviD
Продолжительность : 1 ч. 15 м.
Битрейт : 2298 Кбит/сек
Ширина : 672 пикселя
Высота : 400 пикселей
Соотношение сторон : 1,680
Частота кадров : 25,000 кадров/сек
Цветовое пространство : YUV
Субдискретизация насыщенности : 4:2:0
Битовая глубина : 8 бит
Тип развёртки : Прогрессивная
Метод сжатия : С потерями
Бит/(Пиксели*Кадры) : 0.342
Размер потока : 1,21 Гбайт (94%)
Библиотека кодирования : XviD 1.2.0.dev47 (UTC 2006-11-01)
Аудио
Идентификатор : 1
Формат : MPEG Audio
Версия формата : Version 1
Профиль формата : Layer 3
Режим : Joint stereo
Расширение режима : MS Stereo
Идентификатор кодека : 55
Идентификатор кодека/Подсказка : MP3
Продолжительность : 1 ч. 15 м.
Вид битрейта : Постоянный
Битрейт : 128 Кбит/сек
Каналы : 2 канала
Частота : 44,1 КГц
Метод сжатия : С потерями
Размер потока : 68,8 Мбайт (5%)
Выравнивание : Разделение по промежуткам
Продолжительность промежутка : 40 мс. (1,00 видеокадр)
Время предзагрузки промежутка : 500 мс.

Скриншоты

Яндекс.Метрика
Рейтинг@Mail.ru