[ Сегодня на трекере фрилич! Идет свободное скачивание без начисления Download ]

Университет монстров / Monsters University (Дэн Скэнлон) [2013 г., Мультфильм, фэнтези, комедия, приключения, семейный, полнометражный, BDRip 720p] | BaibaKo

 

Создавать темы 12-Окт-2013 08:51

Информация о фильме
Название: Университет монстров
Оригинальное название: Monsters University
Год выпуска: 2013
Жанр: Мультфильм, фэнтези, комедия, приключения, семейный, полнометражный
Выпущено: США, Pixar Animation Studios, Walt Disney Pictures
Режиссер: Дэн Скэнлон
В ролях: Джон Гудмен, Билли Кристал, Стив Бушеми, Хелен Миррен, Питер Сон, Джоэль Мюррей, Шон Хейс, Дэйв Фоли, Чарли Дэй, Альфред Молина, Натан Филлион, Обри Плаза, Бобби Мойнихэн мл.
О фильме: Майк и Салли — самые опытные пугатели в Монстрополисе, но так было далеко не всегда. Когда они встретились впервые, эти совершенно непохожие друг на друга монстры терпеть друг друга не могли. «Университет Монстров» — история о том, как наши старые знакомые прошли путь от взаимной неприязни к крепкой дружбе.

Файл
Качество: BDRip (720p)
Видео: MPEG-4 AVC, 5368 Кбит/с, 1280x720
Аудио: Русский (AC3, 6 ch, 384 Кбит/с), английский (AC3, 6 ch, 640 Кбит/с)
Размер: 4.64 ГБ
Продолжительность: 01:43:47
Перевод: Профессиональный (многоголосный) BaibaKo

MI

Общее
Уникальный идентификатор : 216803262306994774248647418162366333787 (0xA31ACA1C2242AC5D849BB8C0A79B435B)
Полное имя : D:Monsters.University.2013.BluRay.720p.AC3.x264-CHDMonsters.University.2013.BluRay.720p.AC3.x264-CHD (1).mkv
Формат : Matroska
Версия формата : Version 2
Размер файла : 4,64 Гбайт
Продолжительность : 1 ч. 43 м.
Общий поток : 6396 Кбит/сек
Дата кодирования : UTC 2013-10-11 15:26:29
Программа кодирования : mkvmerge v6.3.0 ('You can't stop me!') built on Jun 28 2013 20:09:41
Библиотека кодирования : libebml v1.3.0 + libmatroska v1.4.0
Видео
Идентификатор : 1
Формат : AVC
Формат/Информация : Advanced Video Codec
Профиль формата : [email protected]
Параметр CABAC формата : Да
Параметр ReFrames формата : 8 кадров
Идентификатор кодека : V_MPEG4/ISO/AVC
Продолжительность : 1 ч. 43 м.
Битрейт : 5368 Кбит/сек
Ширина : 1280 пикселей
Высота : 720 пикселей
Соотношение сторон : 16:9
Режим частоты кадров : Постоянный
Частота кадров : 23,976 кадра/сек
Цветовое пространство : YUV
Субдискретизация насыщенности : 4:2:0
Битовая глубина : 8 бит
Тип развёртки : Прогрессивная
Бит/(Пиксели*Кадры) : 0.243
Размер потока : 3,80 Гбайт (82%)
Заголовок : Monsters.University.2013
Библиотека кодирования : x264 core 138 r2356 a1d3d17
Настройки программы : cabac=1 / ref=8 / deblock=1:-3:-3 / analyse=0x3:0x113 / me=umh / subme=10 / psy=1 / psy_rd=1.00:0.05 / mixed_ref=1 / me_range=32 / chroma_me=1 / trellis=2 / 8x8dct=1 / cqm=0 / deadzone=21,11 / fast_pskip=0 / chroma_qp_offset=-2 / threads=18 / lookahead_threads=1 / sliced_threads=0 / nr=0 / decimate=1 / interlaced=0 / bluray_compat=0 / constrained_intra=0 / bframes=4 / b_pyramid=2 / b_adapt=2 / b_bias=0 / direct=3 / weightb=1 / open_gop=0 / weightp=2 / keyint=250 / keyint_min=23 / scenecut=40 / intra_refresh=0 / rc=2pass / mbtree=0 / bitrate=5368 / ratetol=1.0 / qcomp=0.70 / qpmin=0 / qpmax=69 / qpstep=4 / cplxblur=20.0 / qblur=0.5 / ip_ratio=1.40 / pb_ratio=1.30 / aq=2:1.00
Язык : English
Default : Да
Forced : Нет
Аудио #1
Идентификатор : 2
Формат : AC-3
Формат/Информация : Audio Coding 3
Расширение режима : CM (complete main)
Параметр Endianness формата : Big
Идентификатор кодека : A_AC3
Продолжительность : 1 ч. 43 м.
Вид битрейта : Постоянный
Битрейт : 384 Кбит/сек
Каналы : 6 каналов
Расположение каналов : Front: L C R, Side: L R, LFE
Частота : 48,0 КГц
Битовая глубина : 16 бит
Метод сжатия : С потерями
Размер потока : 285 Мбайт (6%)
Язык : Russian
Default : Да
Forced : Нет
Аудио #2
Идентификатор : 3
Формат : AC-3
Формат/Информация : Audio Coding 3
Расширение режима : CM (complete main)
Параметр Endianness формата : Big
Идентификатор кодека : A_AC3
Продолжительность : 1 ч. 43 м.
Вид битрейта : Постоянный
Битрейт : 640 Кбит/сек
Каналы : 6 каналов
Расположение каналов : Front: L C R, Side: L R, LFE
Частота : 48,0 КГц
Битовая глубина : 16 бит
Метод сжатия : С потерями
Размер потока : 475 Мбайт (10%)
Заголовок : DD5.1 640K ENG
Язык : English
Default : Нет
Forced : Нет

Скриншоты



Яндекс.Метрика
Рейтинг@Mail.ru