Невероятная жизнь Уолтера Митти / The Secret Life of Walter Mitty (Бен Стиллер)(2013,Приключения, мелодрама, драма, комедия, фэнтези) BDRip

 

Создавать темы 28-Мар-2014 02:02

-Невероятная жизнь Уолтера Митти / The Secret Life of Walter Mitty (2013) BDRip «Хватит мечтать. Начни жить»- Год выпуска: 2013
Производство: Twentieth Century Fox Film Corporation, TSG Entertainment, Samuel Goldwyn Films (США)
Жанр: Приключения, мелодрама, драма, комедия, фэнтези
Перевод: Русский и украинский дублированный (CEE)
Субтитры: (srt) Вшитые отключаемые
Язык субтитров: Russian, English
Режиссер: Бен Стиллер
Продюсер: Стюарт Корнфелд, Сэмюэл Голдуин мл., Джон Голдвин
Актеры: Бен Стиллер, Кристен Уиг, Джон Дэйли, Кэтрин Хан, Теренс Берни Хайнс, Адам Скотт, Пол Фицджералд, Грэйс Рекс, Алекс Анфанджер, Аманда Нафтон
Описание фильма:
Кто сказал, что в сердце маленького человека не могут жить великие мечты? Даже скромному и незаметному служащему хочется иногда совершить пусть безумные, но геройские поступки, поверить в свою силу и мужество. Почему всех спасать должны исключительно супермены?-
Дата мировой премьеры: 5 октября 2013
Дата российской премьеры: 1 января 2014, «Двадцатый Век Фокс СНГ»
Дата выхода Blu-Ray релиза: 3 апреля 2014, «Двадцатый Век Фокс СНГ»-Продолжительность: 01:54:51
Качество видео: BDRip ([email protected])
Видео: MPEG-4 AVC Video / 4740 Kbps / 1280 X 534 / 23,976 fps / 2.400 : 1 / High Profile 4.1
Аудио:
1. DTS Audio Russian 768 kbps 5.1 / 48 kHz / 768 kbps / 24-bit
2. AC3 Ukrainian 448 kbps 5.1 / 48 kHz / 448 kbps
3. DTS Core: English 5.1 / 48 kHz / 1509 kbps / 24-bit

h.264 log:

x264 [info]: frame I:2312 Avg QP:14.80 size:236861
x264 [info]: frame P:60926 Avg QP:17.23 size: 90914
x264 [info]: frame B:195521 Avg QP:19.21 size: 43567

MediaInfo:

Общее
Уникальный идентификатор : 238496634615607558909507362031827960140 (0xB36CC7F13355E2778D4B786DA574414C)
Полное имя :\The.Secret.Life.of.Walter.Mitty.2013.BDRip.NNM-CLUB.mkv
Формат : Matroska
Версия формата : Version 2
Размер файла : 5,97 Гбайт
Продолжительность : 1 ч. 54 м.
Общий поток : 7462 Кбит/сек
Название фильма : The.Secret.Life.of.Walter.Mitty.2013.BDRip.NNM-CLUB
Дата кодирования : UTC 2014-03-27 19:08:48
Программа кодирования : mkvmerge v5.8.0 ('No Sleep / Pillow') built on Sep 2 2012 15:37:04
Библиотека кодирования : libebml v1.2.3 + libmatroska v1.3.0
Видео
Идентификатор : 1
Формат : AVC
Формат/Информация : Advanced Video Codec
Профиль формата : [url=mailto:[email protected]][email protected][/url]
Параметр CABAC формата : Да
Параметр ReFrames формата : 10 кадров
Идентификатор кодека : V_MPEG4/ISO/AVC
Продолжительность : 1 ч. 54 м.
Битрейт : 4740 Кбит/сек
Ширина : 1280 пикселей
Высота : 534 пикселя
Соотношение сторон : 2,40:1
Режим частоты кадров : Постоянный
Частота кадров : 23,976 кадра/сек
Цветовое пространство : YUV
Субдискретизация насыщенности : 4:2:0
Битовая глубина : 8 бит
Тип развёртки : Прогрессивная
Бит/(Пиксели*Кадры) : 0.289
Размер потока : 3,67 Гбайт (61%)
Заголовок : The.Secret.Life.of.Walter.Mitty.2013.BDRip.NNM-CLUB
Библиотека кодирования : x264 core 138 r2356 a1d3d17
Настройки программы : cabac=1 / ref=10 / deblock=1:-3:-3 / analyse=0x3:0x113 / me=umh / subme=10 / psy=1 / psy_rd=1.00:0.05 / mixed_ref=1 / me_range=32 / chroma_me=1 / trellis=2 / 8x8dct=1 / cqm=0 / deadzone=21,11 / fast_pskip=0 / chroma_qp_offset=-2 / threads=18 / lookahead_threads=1 / sliced_threads=0 / nr=0 / decimate=1 / interlaced=0 / bluray_compat=0 / constrained_intra=0 / bframes=5 / b_pyramid=2 / b_adapt=2 / b_bias=0 / direct=3 / weightb=1 / open_gop=0 / weightp=2 / keyint=250 / keyint_min=23 / scenecut=40 / intra_refresh=0 / rc=2pass / mbtree=0 / bitrate=4740 / ratetol=1.0 / qcomp=0.70 / qpmin=0 / qpmax=69 / qpstep=4 / cplxblur=20.0 / qblur=0.5 / ip_ratio=1.40 / pb_ratio=1.30 / aq=2:1.00
Язык : English
Default : Да
Forced : Нет
Аудио #1
Идентификатор : 2
Формат : DTS
Формат/Информация : Digital Theater Systems
Режим : 16
Параметр Endianness формата : Big
Идентификатор кодека : A_DTS
Продолжительность : 1 ч. 54 м.
Вид битрейта : Постоянный
Битрейт : 768 Кбит/сек
Каналы : 6 каналов
Расположение каналов : Front: L C R, Side: L R, LFE
Частота : 48,0 КГц
Битовая глубина : 24 бит
Метод сжатия : С потерями
Размер потока : 629 Мбайт (10%)
Заголовок : Дубляж
Язык : Russian
Default : Нет
Forced : Нет
Аудио #2
Идентификатор : 3
Формат : AC-3
Формат/Информация : Audio Coding 3
Расширение режима : CM (complete main)
Параметр Endianness формата : Big
Идентификатор кодека : A_AC3
Продолжительность : 1 ч. 54 м.
Вид битрейта : Постоянный
Битрейт : 448 Кбит/сек
Каналы : 6 каналов
Расположение каналов : Front: L C R, Side: L R, LFE
Частота : 48,0 КГц
Битовая глубина : 16 бит
Метод сжатия : С потерями
Размер потока : 367 Мбайт (6%)
Заголовок : Дубляж
Язык : Ukrainian
Default : Нет
Forced : Нет
Аудио #3
Идентификатор : 4
Формат : DTS
Формат/Информация : Digital Theater Systems
Режим : 16
Параметр Endianness формата : Big
Идентификатор кодека : A_DTS
Продолжительность : 1 ч. 54 м.
Вид битрейта : Постоянный
Битрейт : 1509 Кбит/сек
Каналы : 6 каналов
Расположение каналов : Front: L C R, Side: L R, LFE
Частота : 48,0 КГц
Битовая глубина : 24 бит
Метод сжатия : С потерями
Размер потока : 1,21 Гбайт (20%)
Заголовок : dts-core 1536k eng
Язык : English
Default : Нет
Forced : Нет
Текст #1
Идентификатор : 5
Формат : UTF-8
Идентификатор кодека : S_TEXT/UTF8
Идентификатор кодека/Информация : UTF-8 Plain Text
Язык : Russian
Default : Нет
Forced : Нет
Текст #2
Идентификатор : 6
Формат : UTF-8
Идентификатор кодека : S_TEXT/UTF8
Идентификатор кодека/Информация : UTF-8 Plain Text
Язык : English
Default : Нет
Forced : Нет

Знаете ли Вы, что...

Один из героев фильма ездит на автомобиле ВАЗ-2121 «Нива».
В мае 1999 года студия New Line наняла режиссера Чака Рассела вместо Рона Ховарда, чтобы тот переписал сценарий. Съемки запланировали на начало 2000-го, но они были перенесены. Примерно в это же время над новой версией сценария работал Питер Толан. В мае 2001-го Голдуин подал иск против студии New Line за нарушение положений контракта. Голдуин утверждал, что студия продлевала их сделку 1995 года вплоть до мая 2001-го, но затем объявила о желании передать права на ремейк другой компании и вынудить Голдуина отказаться от его творческого вклада в проект. В ноябре 2002-го Голдуин выиграл судебное разбирательство. Студия New Line вернула ему права на экранизацию, после чего Голдуин решил сотрудничать со студией Paramount Pictures. В мае 2003-го глава студии DreamWorks Стивен Спилберг согласился занять место режиссера проекта и вместе с этим привлечь студию DreamWorks к финансированию фильма совместно со студией Paramount (которая в 2006-м купила DreamWorks).
Скриншоты:

Создавать темы 28-Мар-2014 17:15 (спустя 15 часов)

Топик был перенесен из форума Новинки (HD) в форум Зарубежные Новинки (HD*Rip/LQ, DVDRip)
Sergei3744
Яндекс.Метрика
Рейтинг@Mail.ru