[ Сегодня на трекере фрилич! Идет свободное скачивание без начисления Download ]

Красотки (Сергей Кешишев)(2014,Мелодрама) HDTVRip [H.264/1080p-LQ] [1-4 серии из 4]

 

Создавать темы 27-Мар-2014 13:42

-Красотки (2014) HDTVRip [H.264/1080p-LQ] [1-4 серии из 4]- Страна: Россия
Производство: "Киностудия Маркес"
Год выпуска: 2014
Жанр: Мелодрама
Перевод: Не требуется (Русский)
Субтитры: Отсутствуют

Дата российской премьеры:
22 марта 2014
Режиссер: Сергей Кешишев
Актеры: Анна Попова, Ольга Смирнова, Дмитрий Шевченко, Станислав Бондаренко и др.
Описание фильма:
Таня живет в маленьком провинциальном городе со своим дедом. Ее сестра Ольга давно уехала в Москву и практически разорвала связь с родственниками. Таня работает в музее, жениха у нее нет и каких-либо перспектив устроить свою личную жизнь не предвидится.Внезапно дед Тани серьезно заболевает, он просит Таню разыскать и привезти Ольгу. После непростых поисков сестры наконец встречаются. Ольга рада Татьяне, она живет в совершенно необыкновенной, по Таниным меркам, квартире. Все, что связано со столичной жизнью сестры, вызывает у Тани абсолютный восторг. Единственное о чем не очень охотно говорит Ольга – это о своей работе. Но Таня под впечатлением от встречи с сестрой не придает этому особого значения…
Продолжительность: 02:57:21
Качество видео: HDTVRip [H.264/1080p-LQ]
Видеокодек: MPEG-4 AVC/H.264
Битрейт видео: ~5905 кбит/с
Размер кадра: 1920х1080
Аудиокодек: AC3 2.0
Битрейт аудио: 384 кбит/с

MediaInfo

Общее
Уникальный идентификатор                 : 168348648403719580577546155723716462494 (0x7EA6C532C2870C1E037BA147C20E879E)
Полное имя                               : E:\Закачки\Красотки.mkv
Формат                                   : Matroska
Версия формата                           : Version 2
Размер файла                             : 7,95 Гбайт
Продолжительность                        : 2 ч. 57 м.
Общий поток                              : 6416 Кбит/сек
Программа кодирования                    : Lavf51.12.1
Библиотека кодирования                   : Lavf51.12.1
Видео
Идентификатор                            : 1
Формат                                   : AVC
Формат/Информация                        : Advanced Video Codec
Профиль формата                          : [url=mailto:[email protected]][email protected][/url]
Параметр CABAC формата                   : Нет
Параметр ReFrames формата                : 1 кадр
Параметр GOP формата                     : M=1, N=12
Идентификатор кодека                     : V_MPEG4/ISO/AVC
Продолжительность                        : 2 ч. 57 м.
Битрейт                                  : 5905 Кбит/сек
Ширина                                   : 1920 пикселей
Высота                                   : 1080 пикселей
Соотношение сторон                       : 16:9
Режим частоты кадров                     : Постоянный
Частота кадров                           : 23,976 кадра/сек
Цветовое пространство                    : YUV
Субдискретизация насыщенности            : 4:2:0
Битовая глубина                          : 8 бит
Тип развёртки                            : Прогрессивная
Бит/(Пиксели*Кадры)                      : 0.119
Размер потока                            : 7,31 Гбайт (92%)
Default                                  : Да
Forced                                   : Нет
Аудио
Идентификатор                            : 2
Формат                                   : AC-3
Формат/Информация                        : Audio Coding 3
Расширение режима                        : CM (complete main)
Параметр Endianness формата              : Big
Идентификатор кодека                     : A_AC3
Продолжительность                        : 2 ч. 57 м.
Вид битрейта                             : Постоянный
Битрейт                                  : 384 Кбит/сек
Каналы                                   : 2 канала
Расположение каналов                     : Front: L R
Частота                                  : 48,0 КГц
Битовая глубина                          : 16 бит
Метод сжатия                             : С потерями
Размер потока                            : 487 Мбайт (6%)
Default                                  : Да
Forced                                   : Нет
Скриншоты:Пожалуйста, не уходите с раздачи - помогите докачать другим.
Яндекс.Метрика
Рейтинг@Mail.ru