[ Сегодня на трекере фрилич! Идет свободное скачивание без начисления Download ]

Придурки на экзаменах / Les Sous-doues (1980) BDRip by msltel | P

 

Создавать темы 27-Мар-2014 02:48

Придурки на экзаменах / Les Sous-doues (1980) BDRip by msltel | P Название: Придурки на экзаменах
Оригинальное название: Les Sous-doues
Год выпуска: 1980
Жанр: Комедия
Выпущено: Франция, Films 7
Режиссер: Клод Зиди
В ролях: Мишель Галабрю, Мария Паком, Даниель Отой, Филипп Таччини, Тони Маршалл, Юбер Дешам, Раймон Бюссьер, Жорж Андерсон, Фёдор Аткин, Анри Атталь
О фильме:
Директор школы хочет ввести новую систему обучения и ужесточить правила поведения на уроках. В свою очередь, «детки» дают жару и строят всяческие козни не только администрации школы, но и друг другу! Ведь непросто заниматься воспитанием «высокосознательных» учеников, которые протягивают электричество к дверным ручкам, активно занимаются сексом на уроках химии, притаскивают на занятия домашних животных и предпочитают беременность от несовершеннолетних отцов постижению скучных наук!
Качество: BDRip
Видео: XviD, 1998 Кбит/с, 720x432
Аудио: Русский (AC3, 6 ch, 384 Кбит/с), французский (AC3, 2 ch, 192 Кбит/с)
Продолжительность: 01:32:03
Перевод: Профессиональный многоголосый (R5)

MediaInfo

Общее
Полное имя : D:VideoPridurki na ekzamenah.1980.XviD.BDRip.avi
Формат : AVI
Формат/Информация : Audio Video Interleave
Размер файла : 1,66 Гбайт
Продолжительность : 1 ч. 32 м.
Общий поток : 2588 Кбит/сек
Программа кодирования : VirtualDubMod 1.5.10.2 (build 2540/release)
Библиотека кодирования : VirtualDubMod build 2540/release
Видео
Идентификатор : 0
Формат : MPEG-4 Visual
Профиль формата : Advanced [email protected]
Параметр BVOP формата : 1
Параметр QPel формата : Нет
Параметр GMC формата : Без точки перехода
Параметр матрицы формата : Default (H.263)
Режим смешивания : Сжатый битовый поток
Идентификатор кодека : XVID
Идентификатор кодека/Подсказка : XviD
Продолжительность : 1 ч. 32 м.
Битрейт : 1998 Кбит/сек
Ширина : 704 пикселя
Высота : 432 пикселя
Соотношение сторон : 16:10
Частота кадров : 24,000 кадра/сек
Цветовое пространство : YUV
Субдискретизация насыщенности : 4:2:0
Битовая глубина : 8 бит
Тип развёртки : Прогрессивная
Метод сжатия : С потерями
Бит/(Пиксели*Кадры) : 0.274
Размер потока : 1,28 Гбайт (77%)
Библиотека кодирования : XviD 1.2.1 (UTC 2008-12-04)
Аудио #1
Идентификатор : 1
Формат : AC-3
Формат/Информация : Audio Coding 3
Расширение режима : CM (complete main)
Параметр Endianness формата : Big
Идентификатор кодека : 2000
Продолжительность : 1 ч. 32 м.
Вид битрейта : Постоянный
Битрейт : 384 Кбит/сек
Каналы : 6 каналов
Расположение каналов : Front: L C R, Side: L R, LFE
Частота : 48,0 КГц
Битовая глубина : 16 бит
Метод сжатия : С потерями
Размер потока : 253 Мбайт (15%)
Выравнивание : Разделение по промежуткам
Продолжительность промежутка : 42 мс. (1,00 видеокадр)
Время предзагрузки промежутка : 500 мс.
Аудио #2
Идентификатор : 2
Формат : AC-3
Формат/Информация : Audio Coding 3
Расширение режима : CM (complete main)
Параметр Endianness формата : Big
Идентификатор кодека : 2000
Продолжительность : 1 ч. 32 м.
Вид битрейта : Постоянный
Битрейт : 192 Кбит/сек
Каналы : 2 канала
Расположение каналов : Front: L R
Частота : 48,0 КГц
Битовая глубина : 16 бит
Метод сжатия : С потерями
Размер потока : 126 Мбайт (7%)
Выравнивание : Разделение по промежуткам
Продолжительность промежутка : 42 мс. (1,00 видеокадр)
Время предзагрузки промежутка : 500 мс.

Скриншоты

Яндекс.Метрика
Рейтинг@Mail.ru