Дом призраков / Dark House (Виктор Сальва / Victor Salva) [2014 г., Ужасы, мистика, триллер, HDRip] VO (datynet)

 

Создавать темы 27-Мар-2014 02:35

-Дом призраков / Dark House--«What if ghosts were real...» Производство: США Charles Agron Productions
Год выпуска: 2014 г.
Жанр: Ужасы, мистика, триллер
Продолжительность: 01:42:32
Мировая премьера: 4 марта 2014, ..
Перевод: Любительский (одноголосый, закадровый) [datynet]
Режиссер: Виктор Сальва / Victor Salva-В ролях: Люк Клейнтенк, Энтони Рей Перез, Алекс МакКенна, Тобин Белл, Лейси Анзелк-Описание: Вся жизнь Ника Ди Санто похожа на сплошной кошмар. Еще в детстве он обнаружил, что он обладает особым даром, ему постоянно приходят непонятные видения. Его мать сошла с ума и находится в психиатрической лечебнице. Но оказывается, что его отец, которого Ник считал мертвым, живее всех живых. Именно он поможет разобраться сыну с его даром. К тому же Ник узнает, что он - владелец старинного загородного дома. Но за права на эту недвижимость придется побороться...-Качество видео: HDRip
Контейнер: AVI
Видео кодек: XviD
Аудио кодек: MP3
Видео: XviD, 1660 Кбит/с, 720x304 (2.35:1), 23.976 fps, 0.316 bit / pix
Аудио: Rus: 44.1 kHz, MP3, 2 ch, 192 Кбит/с VO (datynet)
Cубтитры: отсутствуют

Media Info

General
Complete name : W:\Dark.House.2014.avi
Format : AVI
Format/Info : Audio Video Interleave
File size : 1.33 GiB
Duration : 1h 42mn
Overall bit rate : 1 861 Kbps
Writing library : VirtualDub build 34753/release
Video
ID : 0
Format : MPEG-4 Visual
Format profile : Advanced [email protected]
Format settings, BVOP : Yes
Format settings, QPel : No
Format settings, GMC : No warppoints
Format settings, Matrix : Default (H.263)
Muxing mode : Packed bitstream
Codec ID : XVID
Codec ID/Hint : XviD
Duration : 1h 42mn
Bit rate : 1 660 Kbps
Width : 720 pixels
Height : 304 pixels
Display aspect ratio : 2.35:1
Frame rate : 23.976 fps
Color space : YUV
Chroma subsampling : 4:2:0
Bit depth : 8 bits
Scan type : Progressive
Bits/(Pixel*Frame) : 0.316
Stream size : 1.19 GiB (89%)
Writing library : XviD 64
Audio
ID : 1
Format : MPEG Audio
Format version : Version 1
Format profile : Layer 3
Codec ID : 55
Codec ID/Hint : MP3
Duration : 1h 42mn
Bit rate mode : Constant
Bit rate : 192 Kbps
Channel(s) : 2 channels
Sampling rate : 44.1 KHz
Stream size : 141 MiB (10%)
Alignment : Split accross interleaves
Interleave, duration : 42 ms (1.00 video frame)
Interleave, preload duration : 500 ms

Скриншоты

Яндекс.Метрика
Рейтинг@Mail.ru