[ Сегодня на трекере фрилич! Идет свободное скачивание без начисления Download ]

Тёрнер и Хуч / Turner & Hooch (Роджер Споттисвуд / Roger Spottiswoode) [1989 г., Комедия, детектив, BDRip-AVC, 576p] AVO (Михалев, Дохалов, Живов) + Sub (Rus)

 

Создавать темы 27-Мар-2014 02:13

Тёрнер и Хуч / Turner & Hooch Год выпуска: 1989
Производство: США, Silver Screen Partners IV, Touchstone Pictures
Жанр: Комедия, детектив
Продолжительность: 01:39:41
Перевод: Авторский (одноголосый, закадровый) Михалев, Дохалов, Живов
Субтитры: русские
Режиссер: Роджер Споттисвуд / Roger Spottiswoode
В ролях: Том Хэнкс / Tom Hanks, Мэр Уиннингэм / Mare Winningham, Реджиналд Вельянсон / Reginald Veljahnson, Крэйг Т. Нелсон / Craig T. Nelson, Рэймонд Вагнер / Raymond Wagner, Дж. С. Куинн / J. C. Quinn, Скотт Полин / Scott Paulin
Описание: Скотт Тернер (Хэнкс) - исключительно опрятный и аккуратный детектив. Но вся его аккуратность летит к чертям собачьим, когда он вынужден работать с единственным свидетелем преступления - сволочной собакой по кличке Хуч. Вряд ли Хуча можно назвать лучшим другом человека, пес переворачивает жизнь Тернера вверх тормашками. А в результате человек и собака, конечно, подружились. (Иванов М.)
Качество видео: BDRip-AVC
Контейнер: MKV
Видео кодек: MPEG-4 AVC / H.264
Видео: 1024x556 at 23.976 fps, [email protected], ~2989 kbps avg
Аудио#1: 48 kHz, AC3 Dolby Digital, 3/2 (L,C,R,l,r) + LFE ch, ~448 kbps - Михалев
Аудио#2: 48 kHz, AC3 Dolby Digital, 2/0 (L,R) ch, ~192 kbps avg - Дохалов
Аудио#3: 48 kHz, AC3 Dolby Digital, 2/0 (L,R) ch, ~192 kbps avg - Живов
Формат субтитров: softsub (SRT)

Media Info

Формат : Matroska
Версия формата : Version 4 / Version 2
Размер файла : 2,66 Гбайт
Продолжительность : 1 ч. 39 м.
Общий поток : 3818 Кбит/сек
Название фильма : Terner & Huch.1989.BDRip.Mihalev.Dohalov.Zhivov -=anton966=-
Дата кодирования : UTC 2014-03-26 20:44:02
Программа кодирования : mkvmerge v6.8.0 ('Theme for Great Cities') 32bit built on Mar 2 2014 21:27:07
Библиотека кодирования : libebml v1.3.0 + libmatroska v1.4.1
Видео
Идентификатор : 1
Формат : AVC
Формат/Информация : Advanced Video Codec
Профиль формата : [email protected]
Параметр CABAC формата : Да
Параметр ReFrames формата : 9 кадров
Идентификатор кодека : V_MPEG4/ISO/AVC
Продолжительность : 1 ч. 39 м.
Битрейт : 2910 Кбит/сек
Ширина : 1024 пикселя
Высота : 556 пикселей
Соотношение сторон : 1,85:1
Режим частоты кадров : Постоянный
Частота кадров : 23,976 кадра/сек
Цветовое пространство : YUV
Субдискретизация насыщенности : 4:2:0
Битовая глубина : 8 бит
Тип развёртки : Прогрессивная
Бит/(Пиксели*Кадры) : 0.213
Размер потока : 2,03 Гбайт (76%)
Заголовок : Terner & Huch.1989.BDRip (1024x556)
Библиотека кодирования : x264 core 130 r2273 b3065e6
Настройки программы : cabac=1 / ref=9 / deblock=1:-2:-1 / analyse=0x3:0x133 / me=umh / subme=11 / psy=1 / psy_rd=1.00:0.15 / mixed_ref=1 / me_range=24 / chroma_me=1 / trellis=2 / 8x8dct=1 / cqm=0 / deadzone=21,11 / fast_pskip=0 / chroma_qp_offset=-3 / threads=3 / lookahead_threads=1 / sliced_threads=0 / nr=0 / decimate=0 / interlaced=0 / bluray_compat=0 / constrained_intra=0 / bframes=12 / b_pyramid=2 / b_adapt=2 / b_bias=0 / direct=1 / weightb=1 / open_gop=0 / weightp=2 / keyint=240 / keyint_min=23 / scenecut=40 / intra_refresh=0 / rc_lookahead=50 / rc=crf / mbtree=1 / crf=18.2 / qcomp=0.60 / qpmin=0 / qpmax=69 / qpstep=4 / ip_ratio=1.40 / aq=2:0.90
Язык : English
Default : Да
Forced : Нет
Аудио #1
Идентификатор : 2
Формат : AC-3
Формат/Информация : Audio Coding 3
Расширение режима : CM (complete main)
Параметр Endianness формата : Big
Идентификатор кодека : A_AC3
Продолжительность : 1 ч. 39 м.
Вид битрейта : Постоянный
Битрейт : 448 Кбит/сек
Каналы : 6 каналов
Расположение каналов : Front: L C R, Side: L R, LFE
Частота : 48,0 КГц
Битовая глубина : 16 бит
Метод сжатия : С потерями
Размер потока : 319 Мбайт (12%)
Заголовок : Mihalev
Язык : Russian
Default : Да
Forced : Нет
Аудио #2
Идентификатор : 3
Формат : AC-3
Формат/Информация : Audio Coding 3
Расширение режима : CM (complete main)
Параметр Endianness формата : Big
Идентификатор кодека : A_AC3
Продолжительность : 1 ч. 39 м.
Вид битрейта : Постоянный
Битрейт : 192 Кбит/сек
Каналы : 2 канала
Расположение каналов : Front: L R
Частота : 48,0 КГц
Битовая глубина : 16 бит
Метод сжатия : С потерями
Размер потока : 137 Мбайт (5%)
Заголовок : Dohalov
Язык : Russian
Default : Нет
Forced : Нет
Аудио #3
Идентификатор : 4
Формат : AC-3
Формат/Информация : Audio Coding 3
Расширение режима : CM (complete main)
Параметр Endianness формата : Big
Идентификатор кодека : A_AC3
Продолжительность : 1 ч. 39 м.
Вид битрейта : Постоянный
Битрейт : 192 Кбит/сек
Каналы : 2 канала
Расположение каналов : Front: L R
Частота : 48,0 КГц
Битовая глубина : 16 бит
Метод сжатия : С потерями
Размер потока : 137 Мбайт (5%)
Заголовок : Zhivov
Язык : Russian
Default : Нет
Forced : Нет
Текст
Идентификатор : 5
Формат : UTF-8
Идентификатор кодека : S_TEXT/UTF8
Идентификатор кодека/Информация : UTF-8 Plain Text
Язык : Russian
Default : Нет
Forced : Нет
Меню
00:00:00.000 : :Scott and Hooch
00:12:27.747 : :Amos Gets Killed
00:17:37.513 : :Catching Hooch
00:25:54.844 : :Hooch at the Doctor's Office
00:29:11.123 : :A Long Night
00:36:43.159 : :Home Alone
00:44:38.092 : :Scott and Emily
00:50:24.896 : :The Eyewitness
00:59:10.296 : :On the Case
01:05:35.890 : :Falling in Love
01:19:01.528 : :Solving the Case
01:30:05.649 : :A New Beginning/End Credits
01:39:31.215 : :End

log x.264

avs [info]: 1024x556p 1:1 @ 2997/125 fps (cfr)
x264 [info]: using SAR=1/1
x264 [info]: using cpu capabilities: MMX2 SSE2Slow SlowCTZ
x264 [info]: profile High, level 4.1
x264 [info]: frame I:990 Avg QP:16.43 size: 83074
x264 [info]: frame P:29730 Avg QP:20.55 size: 30254
x264 [info]: frame B:112460 Avg QP:22.49 size: 11109
x264 [info]: consecutive B-frames: 1.5% 2.2% 7.0% 21.6% 18.2% 31.9% 7.5% 5.3% 1.7% 0.9% 0.8% 0.7% 0.6%
x264 [info]: mb I I16..4: 7.9% 73.0% 19.1%
x264 [info]: mb P I16..4: 1.5% 16.6% 2.0% P16..4: 33.4% 33.9% 9.1% 1.4% 0.2% skip: 2.0%
x264 [info]: mb B I16..4: 0.1% 2.0% 0.2% B16..8: 38.3% 19.4% 2.5% direct: 7.1% skip:30.3% L0:44.1% L1:44.3% BI:11.6%
x264 [info]: 8x8 transform intra:82.9% inter:67.6%
x264 [info]: coded y,uvDC,uvAC intra: 90.1% 86.6% 62.3% inter: 31.5% 34.5% 13.8%
x264 [info]: i16 v,h,dc,p: 19% 17% 5% 60%
x264 [info]: i8 v,h,dc,ddl,ddr,vr,hd,vl,hu: 8% 8% 4% 10% 15% 14% 14% 13% 14%
x264 [info]: i4 v,h,dc,ddl,ddr,vr,hd,vl,hu: 11% 8% 3% 8% 15% 15% 14% 11% 13%
x264 [info]: i8c dc,h,v,p: 43% 21% 17% 19%
x264 [info]: Weighted P-Frames: Y:4.8% UV:2.0%
x264 [info]: ref P L0: 42.0% 9.7% 21.3% 6.9% 6.7% 4.1% 4.3% 2.1% 2.5% 0.3% 0.0%
x264 [info]: ref B L0: 72.1% 13.5% 6.0% 3.2% 2.1% 1.9% 0.9% 0.4%
x264 [info]: ref B L1: 92.7% 7.3%
x264 [info]: kb/s:2988.72

Скриншоты

Яндекс.Метрика
Рейтинг@Mail.ru