Всё ещё возможно / Da geht noch was! ( Хольгер Хаазе )(2013,Драма, Мелодрама, Комедия) HDRip

 

Создавать темы 26-Мар-2014 22:24

-Всё ещё возможно / Da geht noch was! (2013) HDRip- Год выпуска: 2013
Производство: Германия | Olga Film GmbH
Жанр: Драма, Мелодрама, Комедия
Перевод: Одноголосый закадровый, любительский
Субтитры: Отсутствуют-Дата мировой премьеры: 12 сентября 2013-Режиссер: Хольгер Хаазе-Продюсер: Виола Ягер, Харольд Кёглер-Актеры: Флориан Давид Фиц, Хенри Хюбхен, Мариус В. Хаас, Лесли Молтон, Текла Рютен, Джэйми Бик, Феликс фон Мантейфель, Ева-Мария Кромер, Флориан Брюкнер, Махендра Мунизэми, Улла Гейджер ...-Описание фильма:
• Из-за ворчливости своего отца Карла Конрад свёл к минимуму визиты к родителям. Тот постоянно недоволен его женой Тамарой и сыном Йонасом. На ежегодной встрече мать Конрада Хелена застаёт его врасплох неожиданными новостями. После 40 лет совместной жизни она оставила мужа и теперь просит сына навестить семейный дом.
• Там он застаёт заливающего горе отца за горой банок из-под пива. Когда Карл получает тяжёлую травму от падения в бассейн, Конрад вместе с сыном вынужден переехать к нему, чтобы присматривать за больным. Смогут ли ужиться вместе три поколения под одной крышей?-
Продолжительность: 01:40:43
Качество видео: HDRip
Видеокодек: Xvid
Битрейт видео: ~ 1532 Кбит/сек
Размер кадра: 720 x 304 (2.368) at 24.000 fps
Аудиокодек: AC3 2.0
Битрейт аудио: 320 Кбит/сек, 48,0 КГц

MediaInfo:

Полное имя                               : G:\Da.geht.noch.was.2013.HDRip.avi
Формат                                   : AVI
Формат/Информация                        : Audio Video Interleave
Размер файла                             : 1,31 Гбайт
Продолжительность                        : 1 ч. 40 м.
Общий поток                              : 1861 Кбит/сек
Программа кодирования                    : VirtualDubMod 1.5.10.2 (build 2542/release)
Библиотека кодирования                   : VirtualDubMod build 2542/release
Видео
Идентификатор                            : 0
Формат                                   : MPEG-4 Visual
Профиль формата                          : Advanced [email protected]
Параметр BVOP формата                    : 2
Параметр QPel формата                    : Нет
Параметр GMC формата                     : Без точки перехода
Параметр матрицы формата                 : Default (H.263)
Идентификатор кодека                     : XVID
Идентификатор кодека/Подсказка           : XviD
Продолжительность                        : 1 ч. 40 м.
Битрейт                                  : 1532 Кбит/сек
Ширина                                   : 720 пикселей
Высота                                   : 304 пикселя
Соотношение сторон                       : 2,35:1
Частота кадров                           : 24,000 кадра/сек
Цветовое пространство                    : YUV
Субдискретизация насыщенности            : 4:2:0
Битовая глубина                          : 8 бит
Тип развёртки                            : Прогрессивная
Метод сжатия                             : С потерями
Бит/(Пиксели*Кадры)                      : 0.292
Размер потока                            : 1,08 Гбайт (82%)
Библиотека кодирования                   : XviD 1.2.1 (UTC 2008-12-04)
Аудио
Идентификатор                            : 1
Формат                                   : AC-3
Формат/Информация                        : Audio Coding 3
Расширение режима                        : CM (complete main)
Параметр Endianness формата              : Big
Идентификатор кодека                     : 2000
Продолжительность                        : 1 ч. 40 м.
Вид битрейта                             : Постоянный
Битрейт                                  : 320 Кбит/сек
Каналы                                   : 2 канала
Расположение каналов                     : Front: L R
Частота                                  : 48,0 КГц
Битовая глубина                          : 16 бит
Метод сжатия                             : С потерями
Размер потока                            : 231 Мбайт (17%)
Выравнивание                             : Разделение по промежуткам
Продолжительность промежутка             : 42  мс. (1,00 видеокадр)
Время предзагрузки промежутка            : 500  мс.
Скриншоты:


Яндекс.Метрика
Рейтинг@Mail.ru