Разрушительница / The Demolitionist (Роберт Куртцман / Robert Kurtzman) [1995, Фантастика, боевик, триллер, BDRip] DVO + Original (Eng)

 

Создавать темы 26-Мар-2014 17:10

-Разрушительница / The Demolitionist-- Год выпуска: 1995
Жанр: Фантастика, боевик, триллер
Выпущено: США, A-Pix Entertainment Inc., Le Monte Entertainment, Planet Productions
Продолжительность: 01:32:58
Перевод: Профессиональный двухголосый
Оригинальная дорожка: Английский-Режиссер: Роберт Куртцман / Robert Kurtzman-В ролях: Николь Эггерт, Брюс Эбботт, Сьюзан Тиррелл, Питер Джейсон, Сара Даглас, Ричард Грико, Андраш Джоунс, Хезер Лэнгенкэмп, Дэвид Энтони Маршалл, Джек Нэнс, Джозеф Пилато, Том Савини, Нилс Аллен Стюарт-Описание: Волна преступности захлестнула Метро-сити. Во время одной из специальных операций офицер полиции Алиса Ллойд была зверски убита Бешеным Псом и его бандой. Но с помощью чудо — технологии сверхсекретного проекта «Лазарус» Алиса Ллойд вернулась из мертвых.
Теперь она — «Разрушительница», новое поколение сил охраны правопорядка, биогенетически усовершенствованный солдат правосудия, вооруженный всеми видами суперсовременного оружия. «Разрушительница» начинает свой крестовый поход против банды Бешеного Пса. На этот раз война с преступностью ведется с применением самых крайних мер.-Качество: BDRip
Контейнер: AVI
Видео кодек: XviD
Аудио кодек: AC3
Видео: XviD, 1 846 Kbps, 720х400, 16:9, 24.000 fps, 8 bits, 0.267 Bits/Pixe
Аудио1: AC-3,192 Kbps, 2 channels, Front: L R, 48.0 KHz, 16 bits
Аудио2: AC-3,192 Kbps, 2 channels, Front: L R, 48.0 KHz, 16 bits-

Медиаинфо

General
Complete name : D:\Видео\The Demolitionist - Разрушительница(1995 BDRip).avi
Format : AVI
Format/Info : Audio Video Interleave
File size : 1.46 GiB
Duration : 1h 32mn
Overall bit rate : 2 244 Kbps
Writing application : VirtualDubMod 1.5.10.2 (build 2540/release)
Video
ID : 0
Format : MPEG-4 Visual
Format profile : Advanced [email protected]
Format settings, BVOP : 2
Format settings, QPel : No
Format settings, GMC : No warppoints
Format settings, Matrix : Default (MPEG)
Codec ID : XVID
Codec ID/Hint : XviD
Duration : 1h 32mn
Bit rate : 1 846 Kbps
Width : 720 pixels
Height : 400 pixels
Display aspect ratio : 16:9
Frame rate : 24.000 fps
Color space : YUV
Chroma subsampling : 4:2:0
Bit depth : 8 bits
Scan type : Progressive
Compression mode : Lossy
Bits/(Pixel*Frame) : 0.267
Stream size : 1.20 GiB (82%)
Writing library : XviD 1.2.0.dev47 (UTC 2006-11-01)
Audio #1
ID : 1
Format : AC-3
Format/Info : Audio Coding 3
Mode extension : CM (complete main)
Format settings, Endianness : Big
Codec ID : 2000
Duration : 1h 32mn
Bit rate mode : Constant
Bit rate : 192 Kbps
Channel(s) : 2 channels
Channel positions : Front: L R
Sampling rate : 48.0 KHz
Bit depth : 16 bits
Compression mode : Lossy
Stream size : 128 MiB (9%)
Alignment : Split accross interleaves
Interleave, duration : 42 ms (1.00 video frame)
Interleave, preload duration : 500 ms
Audio #2
ID : 2
Format : AC-3
Format/Info : Audio Coding 3
Mode extension : CM (complete main)
Format settings, Endianness : Big
Codec ID : 2000
Duration : 1h 32mn
Bit rate mode : Constant
Bit rate : 192 Kbps
Channel(s) : 2 channels
Channel positions : Front: L R
Sampling rate : 48.0 KHz
Bit depth : 16 bits
Compression mode : Lossy
Stream size : 128 MiB (9%)
Alignment : Split accross interleaves
Interleave, duration : 42 ms (1.00 video frame)
Interleave, preload duration : 500 ms-

Скриншоты

-
Яндекс.Метрика
Рейтинг@Mail.ru