Чёрная стрела (Сергей Тарасов) [1985 г., история, DVDRip]

 

Создавать темы 26-Мар-2014 02:31

-Чёрная стрела-- Производство: СССР, Мосфильм
Режиссер: Сергей Тарасов
Жанр: история
Год выпуска: 1985 г.
Продолжительность: 01:25:37
В ролях: Галина Беляева, Игорь Шавлак, Леонид Кулагин, Юрий Смирнов, Альгимантас Масюлис, Борис Химичев, Александр Филиппенко, Сергей Тарасов, Яна Друзь, Борис Хмельницкий, Владимир Разумовский, Николай Дупак, Андрей Юренев, Владимир Литвинов-Описание: Средневековая Англия, конец XV века. Молодой Дик Шелтон начинает подозревать, что смерть его отца была не случайной: чёрная стрела, пущенная рукой Джона-мщу-за-всех, содержит приписку, гласящую, что убийцы Шелтона-старшего будут наказаны. Однако попытки узнать подробности о смерти отца натыкаются на стену. Более того, опекун Дика, сэр Дэниел, узнав о его расспросах, приказывает переселить его в «комнату, из которой исчезают» и Дик оказывается в смертельной опасности-Качество видео: DVDRip
Контейнер: AVI
Видео кодек: DivX
Аудио кодек: MP3
Видео: 656x336; 1004 kbps; 25 fps; 0.182 bit/pixel
Аудио: 128.00 kbps; 48 kHz; 2 ch
Cубтитры: отсутствуют

Media Info

Общее
Полное имя : E:\Torrent\Chernaja_strela.torrent.avi
Формат : AVI
Формат/Информация : Audio Video Interleave
Размер файла : 699 Мбайт
Продолжительность : 1 ч. 25 м.
Общий поток : 1142 Кбит/сек
Программа кодирования : VirtualDubModRus 1.5.10.2 (build 2542/release)
Библиотека кодирования : VirtualDubMod build 2542/release
Видео
Идентификатор : 0
Формат : MPEG-4 Visual
Параметр BVOP формата : 1
Параметр QPel формата : Нет
Параметр GMC формата : Без точки перехода
Параметр матрицы формата : Default (H.263)
Режим смешивания : Сжатый битовый поток
Идентификатор кодека : DX50
Идентификатор кодека/Подсказка : DivX 5
Продолжительность : 1 ч. 25 м.
Битрейт : 1004 Кбит/сек
Ширина : 656 пикселей
Высота : 336 пикселей
Соотношение сторон : 1,952
Частота кадров : 25,000 кадров/сек
Цветовое пространство : YUV
Субдискретизация насыщенности : 4:2:0
Битовая глубина : 8 бит
Тип развёртки : Прогрессивная
Метод сжатия : С потерями
Бит/(Пиксели*Кадры) : 0.182
Размер потока : 615 Мбайт (88%)
Библиотека кодирования : DivX 6.8.3-6.8.4 (UTC 2008-06-07)
Аудио
Идентификатор : 1
Формат : MPEG Audio
Версия формата : Version 1
Профиль формата : Layer 3
Режим : Joint stereo
Расширение режима : MS Stereo
Идентификатор кодека : 55
Идентификатор кодека/Подсказка : MP3
Продолжительность : 1 ч. 25 м.
Вид битрейта : Постоянный
Битрейт : 128 Кбит/сек
Каналы : 2 канала
Частота : 48,0 КГц
Метод сжатия : С потерями
Размер потока : 78,4 Мбайт (11%)
Выравнивание : Соединение по промежуткам
Продолжительность промежутка : 40 мс. (1,00 видеокадр)
Время предзагрузки промежутка : 504 мс.
Библиотека кодирования : LAME3.97
Настройки программы : -m j -V 4 -q 1 -b 128

Скриншоты

Яндекс.Метрика
Рейтинг@Mail.ru