Мои африканские приключения / Min sosters born i Afrika (Мартин Миэ-Ренар / Martin Miehe-Renard) [2013 г., комедия, приключения, семейный, HDRip] DVO [НТВ+] + Original (Eng)

 

Создавать темы 25-Мар-2014 16:23

-Мои африканские приключения / Min sosters born i Afrika- Производство: Дания, Obel Film, Thura Film
Год выпуска: 2013 г.
Жанр: комедия, приключения, семейный
Продолжительность: 01:16:37
Мировая премьера: 31 января 2013
Российская премьера: 30 января 2014, «UMS Film»
Дата выхода DVD: 10 апреля 2014, «CD Land»
Перевод: Профессиональный (двухголосый, закадровый) [НТВ+]
Оригинальный аудиопоток: английский-Режиссер: Мартин Миэ-Ренар / Martin Miehe-Renard
В ролях: Петер Мюгинд, Милле Динесен, Роберт Хансен, Вибеке Хаструп, Дитте Хансен, Вики Брукер-Описание:-Семья Берг отправляется в путешествие в Африку, что- бы помочь спасти исчезающие виды животных. На их пути становятся ужасные и беспощадные браконьеры, которые не любят, когда в их дела вмешиваются.-Качество видео: HDRip
Контейнер: AVI
Видео кодек: XviD
Аудио кодек: AC3
Видео: XviD build 50, 720x384 (1.88:1), 1967 kbps avg, 25 fps, 0.28 bit/pixel
Аудио: Русский: AC3 Dolby Digital, 192 kbps, 2/0 (L,R) ch, 48 kHz [DVO]
Аудио #2: Английский: AC3 Dolby Digital, 384 kbps, 3/2 (L,C,R,l,r) + LFE ch, 48 kHz [Original]
Cубтитры: отсутствуют

Media Info

General
Complete name                            : D:\Moi.afrikanskie.priklu4eniya.2013.P.HDRip.avi
Format                                   : AVI
Format/Info                              : Audio Video Interleave
File size                                : 1.37 GiB
Duration                                 : 1h 16mn
Overall bit rate                         : 2 559 Kbps
Writing application                      : VirtualDubMod 1.5.10.2 (build 2540/release)
Writing library                          : VirtualDubMod build 2540/release
Video
ID                                       : 0
Format                                   : MPEG-4 Visual
Format profile                           : Advanced [email protected]
Format settings, BVOP                    : 2
Format settings, QPel                    : No
Format settings, GMC                     : No warppoints
Format settings, Matrix                  : Default (MPEG)
Codec ID                                 : XVID
Codec ID/Hint                            : XviD
Duration                                 : 1h 16mn
Bit rate                                 : 1 969 Kbps
Width                                    : 720 pixels
Height                                   : 384 pixels
Display aspect ratio                     : 1.85:1
Frame rate                               : 25.000 fps
Color space                              : YUV
Chroma subsampling                       : 4:2:0
Bit depth                                : 8 bits
Scan type                                : Progressive
Compression mode                         : Lossy
Bits/(Pixel*Frame)                       : 0.285
Stream size                              : 1.05 GiB (77%)
Writing library                          : XviD 1.2.1 (UTC 2008-12-04)
Audio #1
ID                                       : 1
Format                                   : AC-3
Format/Info                              : Audio Coding 3
Mode extension                           : CM (complete main)
Format settings, Endianness              : Big
Codec ID                                 : 2000
Duration                                 : 1h 16mn
Bit rate mode                            : Constant
Bit rate                                 : 192 Kbps
Channel(s)                               : 2 channels
Channel positions                        : Front: L R
Sampling rate                            : 48.0 KHz
Bit depth                                : 16 bits
Compression mode                         : Lossy
Stream size                              : 105 MiB (8%)
Alignment                                : Split accross interleaves
Interleave, duration                     : 40 ms (1.00 video frame)
Interleave, preload duration             : 500 ms
Audio #2
ID                                       : 2
Format                                   : AC-3
Format/Info                              : Audio Coding 3
Mode extension                           : CM (complete main)
Format settings, Endianness              : Big
Codec ID                                 : 2000
Duration                                 : 1h 16mn
Bit rate mode                            : Constant
Bit rate                                 : 384 Kbps
Channel(s)                               : 6 channels
Channel positions                        : Front: L C R, Side: L R, LFE
Sampling rate                            : 48.0 KHz
Bit depth                                : 16 bits
Compression mode                         : Lossy
Stream size                              : 210 MiB (15%)
Alignment                                : Split accross interleaves
Interleave, duration                     : 40 ms (1.00 video frame)
Interleave, preload duration             : 500 ms

Скриншоты

Яндекс.Метрика
Рейтинг@Mail.ru