Каскадёры / Stunts (Марк Л. Лестер / Mark L. Lester) [1977 г., криминал, TVRip] MVO

 

Создавать темы 25-Мар-2014 16:21

-Каскадёры / Stunts-- Производство: США, Lorimar Telepictures
Год выпуска: 1977 г.
Жанр: криминал
Продолжительность: 01:23:32
Перевод: Профессиональный (многоголосый, закадровый)
Режиссер: Марк Л. Лестер / Mark L. Lester-В ролях: Роберт Фостер /Robert Forster/, Брюс Гловер /Bruce Glover/, Джоанна Кассиди /Joanna Cassidy/, Рей Шарки /Ray Sharkey/, Джеймс Луизи /James Luisi/-Описание: Во время съёмок полицейского боевика в Сент-Луисе, выполняя сложный вертолётно-акробатический трюк, внезапно гибнет молодой каскадёр Грэг Уилсон. Дирекция проекта списывает всё на несчастный случай. Так бы и осталась смерть отчаянного парня тайной за семью печатями, если бы на съёмочной площадке злополучного фильма не появился его старший брат Глен. Заменив погибшего родственника в работе над трюковыми эпизодами картины, он по ходу проводит личное расследование, не доверяя официальной версии о несчастном случае. Подозрения в намеренных убийствах усиливаются, когда жертвами неизвестного злоумышленника оказываются ещё два каскадёра. Круг подозреваемых Гленом участников съёмочной группы расширяется до тех пор, пока в финале он не вычисляет настоящего убийцу брата и своих друзей.-Качество видео: TVRip
Контейнер: AVI
Видео кодек: XviD
Аудио кодек: MP3
Видео: 640x480; 981 kbps; 25 fps; 0.128 bit/pixel
Аудио: 106 kbps; 48 kHz; 2 ch
Cубтитры: отсутствуют

Media Info

Общее
Полное имя : E:\Torrent\Kaskaderi.torrent.avi
Формат : AVI
Формат/Информация : Audio Video Interleave
Размер файла : 657 Мбайт
Продолжительность : 1 ч. 23 м.
Режим общего битрейта : Переменный
Общий поток : 1100 Кбит/сек
Программа кодирования : VirtualDubMod 1.5.4.1 (build 2178/release)
Библиотека кодирования : VirtualDub build 35390/release
Видео
Идентификатор : 0
Формат : MPEG-4 Visual
Профиль формата : Advanced [email protected]
Параметр BVOP формата : 1
Параметр QPel формата : Нет
Параметр GMC формата : Без точки перехода
Параметр матрицы формата : Default (MPEG)
Режим смешивания : Сжатый битовый поток
Идентификатор кодека : XVID
Идентификатор кодека/Подсказка : XviD
Продолжительность : 1 ч. 23 м.
Битрейт : 981 Кбит/сек
Ширина : 640 пикселей
Высота : 480 пикселей
Соотношение сторон : 4:3
Частота кадров : 25,000 кадров/сек
Цветовое пространство : YUV
Субдискретизация насыщенности : 4:2:0
Битовая глубина : 8 бит
Тип развёртки : Прогрессивная
Метод сжатия : С потерями
Бит/(Пиксели*Кадры) : 0.128
Размер потока : 586 Мбайт (89%)
Библиотека кодирования : XviD 1.2.1 (UTC 2008-12-04)
Аудио
Идентификатор : 1
Формат : MPEG Audio
Версия формата : Version 1
Профиль формата : Layer 3
Режим : Joint stereo
Расширение режима : MS Stereo
Идентификатор кодека : 55
Идентификатор кодека/Подсказка : MP3
Продолжительность : 1 ч. 23 м.
Вид битрейта : Переменный
Битрейт : 106 Кбит/сек
Номинальный битрейт : 128 Кбит/сек
Каналы : 2 канала
Частота : 48,0 КГц
Метод сжатия : С потерями
Размер потока : 63,1 Мбайт (10%)
Выравнивание : Соединение по промежуткам
Продолжительность промежутка : 24 мс. (0,60 видеокадр)
Время предзагрузки промежутка : 509 мс.
Библиотека кодирования : LAME3.97
Настройки программы : -m j -V 4 -q 2 -lowpass 17 --abr 128

Скриншоты

Яндекс.Метрика
Рейтинг@Mail.ru