Герой-одиночка / Last Man Standing (Уолтер Хилл / Walter Hill) [1996 г., Боевик, Триллер, Драма, Криминал, BDRip-AVC] AVO (Гаврилов, Живов, Горчаков, Лёша-Прапорщик)

 

Создавать темы 25-Мар-2014 02:37

Герой-одиночка / Last Man Standing«If you lived in this town, you'd be dead by now.»- Год выпуска: 1996
Производство: США, New Line Cinema
Жанр: Боевик, Триллер, Драма, Криминал
Продолжительность: 01:41:03
Перевод: Авторский (одноголосый, закадровый) Гаврилов, Живов, Горчаков, Лёша-Прапорщик
Субтитры: отсутствуют
Режиссер: Уолтер Хилл / Walter Hill
В ролях: Брюс Уиллис / Bruce Willis, Кристофер Уокен / Christopher Walken, Александра Пауэрс / Alexandra Powers, Дэвид Патрик Келли / David Patrick Kelly, Уильям Сэндерсон / William Sanderson, Карина Ломбард / Karina Lombard, Нед Айзенберг / Ned Eisenberg, Майкл Империоли / Michael Imperioli, Кен Дженкинс / Ken Jenkins, Р. Д. Колл / R. D. Call, Лесли Манн / Leslie Mann, Брюс Дерн / Bruce Dern
Описание: Америка, времена «сухого закона». Бродяга и наемник Джон Смит по пути к мексиканской границе оказывается в маленьком техасском городке, где обосновались две банды бутлегеров - ирландца Дойла и итальянца Строззи, ведущие между собой бесконечные кровавые разборки.
Примыкая по очереди то к одной, то к другой банде, разряжая свой пистолет то в одних гангстеров, то в других, Смит на самом деле преследует свои собственные цели…

Качество видео: BDRip-AVC
Контейнер: MKV
Видео кодек: MPEG-4 AVC / H.264
Видео: 1056x448 at 23.976 fps, [email protected], ~2161 kbps avg
Аудио#1: 48 kHz, AC3 Dolby Digital, 3/2 (L,C,R,l,r) + LFE ch, ~448 kbps - Гаврилов
Аудио#2: 48 kHz, AC3 Dolby Digital, 3/2 (L,C,R,l,r) + LFE ch, ~448 kbps - Живов
Аудио#3: 48 kHz, AC3 Dolby Digital, 2/0 (L,R) ch, ~256 kbps avg - Горчаков
Аудио#4: 48 kHz, AC3 Dolby Digital, 2/0 (L,R) ch, ~256 kbps avg - Лёша - Прапорщик

Доп. информация

"Этот фильм не ремейк фильма Куросавы, а экранизация романа Дэшилла Хэммета "Кровавая жатва". Куросава снимая "Телохранитель" переделал сюжет американского детектива и стилизовал его под Японию XIX века. Куросава просто закрепил за собой права на эту историю, после чего обвинял в плагиате всех кто снимал фильмы с похожим сюжетом. Отсудил у создателей фильма "За пригоршню долларов" 100 тысяч баксов. Американцы парится не стали и просто выкупили права на экранизацию.
Так что этот фильм как раз нормальная экранизация книги, а фильм Куросавы просто снят по её мотивам. Поскольку фильм Куросавы имеет мировую известность, создатели фильма "Герой Одиночка" сделали отсылку на него." (с) Давидос

Media Info

Формат : Matroska
Версия формата : Version 4 / Version 2
Размер файла : 2,52 Гбайт
Продолжительность : 1 ч. 41 м.
Общий поток : 3571 Кбит/сек
Название фильма : Last Man Standing.1996.BDRip.Gavrilov.Zhivov.Gorchakov.Praporschik
Дата кодирования : UTC 2014-03-24 13:42:18
Программа кодирования : mkvmerge v6.8.0 ('Theme for Great Cities') 32bit built on Mar 2 2014 21:27:07
Библиотека кодирования : libebml v1.3.0 + libmatroska v1.4.1
Видео
Идентификатор : 1
Формат : AVC
Формат/Информация : Advanced Video Codec
Профиль формата : [email protected]
Параметр CABAC формата : Да
Параметр ReFrames формата : 8 кадров
Идентификатор кодека : V_MPEG4/ISO/AVC
Продолжительность : 1 ч. 41 м.
Битрейт : 2092 Кбит/сек
Ширина : 1056 пикселей
Высота : 448 пикселей
Соотношение сторон : 2,35:1
Режим частоты кадров : Постоянный
Частота кадров : 23,976 кадра/сек
Цветовое пространство : YUV
Субдискретизация насыщенности : 4:2:0
Битовая глубина : 8 бит
Тип развёртки : Прогрессивная
Бит/(Пиксели*Кадры) : 0.184
Размер потока : 1,48 Гбайт (59%)
Заголовок : Last Man Standing.1996.BDRip (1056x448)
Библиотека кодирования : x264 core 130 r2273 b3065e6
Настройки программы : cabac=1 / ref=8 / deblock=1:-2:-1 / analyse=0x3:0x133 / me=umh / subme=11 / psy=1 / psy_rd=1.05:0.20 / mixed_ref=1 / me_range=24 / chroma_me=1 / trellis=2 / 8x8dct=1 / cqm=0 / deadzone=21,11 / fast_pskip=0 / chroma_qp_offset=-3 / threads=3 / lookahead_threads=1 / sliced_threads=0 / nr=0 / decimate=0 / interlaced=0 / bluray_compat=0 / constrained_intra=0 / bframes=9 / b_pyramid=2 / b_adapt=2 / b_bias=0 / direct=1 / weightb=1 / open_gop=0 / weightp=2 / keyint=240 / keyint_min=23 / scenecut=40 / intra_refresh=0 / rc_lookahead=50 / rc=crf / mbtree=1 / crf=18.5 / qcomp=0.60 / qpmin=0 / qpmax=69 / qpstep=4 / ip_ratio=1.40 / aq=2:1.10
Язык : English
Default : Да
Forced : Нет
Аудио #1
Идентификатор : 2
Формат : AC-3
Формат/Информация : Audio Coding 3
Расширение режима : CM (complete main)
Параметр Endianness формата : Big
Идентификатор кодека : A_AC3
Продолжительность : 1 ч. 41 м.
Вид битрейта : Постоянный
Битрейт : 448 Кбит/сек
Каналы : 6 каналов
Расположение каналов : Front: L C R, Side: L R, LFE
Частота : 48,0 КГц
Битовая глубина : 16 бит
Метод сжатия : С потерями
Размер потока : 324 Мбайт (13%)
Заголовок : Gavrilov AC3 5.1 @ 448 kbps
Язык : Russian
Default : Да
Forced : Нет
Аудио #2
Идентификатор : 3
Формат : AC-3
Формат/Информация : Audio Coding 3
Расширение режима : CM (complete main)
Параметр Endianness формата : Big
Идентификатор кодека : A_AC3
Продолжительность : 1 ч. 41 м.
Вид битрейта : Постоянный
Битрейт : 448 Кбит/сек
Каналы : 6 каналов
Расположение каналов : Front: L C R, Side: L R, LFE
Частота : 48,0 КГц
Битовая глубина : 16 бит
Метод сжатия : С потерями
Размер потока : 324 Мбайт (13%)
Заголовок : Zhivov AC3 5.1 @ 448 kbps
Язык : Russian
Default : Нет
Forced : Нет
Аудио #3
Идентификатор : 4
Формат : AC-3
Формат/Информация : Audio Coding 3
Расширение режима : CM (complete main)
Параметр Endianness формата : Big
Идентификатор кодека : A_AC3
Продолжительность : 1 ч. 41 м.
Вид битрейта : Постоянный
Битрейт : 256 Кбит/сек
Каналы : 2 канала
Расположение каналов : Front: L R
Частота : 48,0 КГц
Битовая глубина : 16 бит
Метод сжатия : С потерями
Размер потока : 185 Мбайт (7%)
Заголовок : Gorchakov AC3 2.0 @ 256 kbps
Язык : Russian
Default : Нет
Forced : Нет
Аудио #4
Идентификатор : 5
Формат : AC-3
Формат/Информация : Audio Coding 3
Расширение режима : CM (complete main)
Параметр Endianness формата : Big
Идентификатор кодека : A_AC3
Продолжительность : 1 ч. 41 м.
Вид битрейта : Постоянный
Битрейт : 256 Кбит/сек
Каналы : 2 канала
Расположение каналов : Front: L R
Частота : 48,0 КГц
Битовая глубина : 16 бит
Метод сжатия : С потерями
Размер потока : 185 Мбайт (7%)
Заголовок : Lesha-Praporschik AC3 2.0 @ 256 kbps
Язык : Russian
Default : Нет
Forced : Нет

log x.264

avs [info]: 1056x448p 1:1 @ 2997/125 fps (cfr)
x264 [info]: using SAR=1/1
x264 [info]: using cpu capabilities: MMX2 SSE2Slow SlowCTZ
x264 [info]: profile High, level 4.1
x264 [info]: frame I:853 Avg QP:16.01 size: 67387
x264 [info]: frame P:29390 Avg QP:19.74 size: 22957
x264 [info]: frame B:115130 Avg QP:22.21 size: 7868
x264 [info]: consecutive B-frames: 1.2% 1.2% 3.6% 23.3% 16.8% 43.7% 4.7% 4.0% 0.7% 0.7%
x264 [info]: mb I I16..4: 11.7% 72.0% 16.2%
x264 [info]: mb P I16..4: 1.6% 12.5% 1.1% P16..4: 31.9% 34.6% 10.8% 2.2% 0.3% skip: 4.9%
x264 [info]: mb B I16..4: 0.1% 1.7% 0.1% B16..8: 36.1% 16.2% 2.2% direct: 5.9% skip:37.8% L0:41.8% L1:46.5% BI:11.7%
x264 [info]: 8x8 transform intra:83.9% inter:60.2%
x264 [info]: coded y,uvDC,uvAC intra: 89.6% 76.6% 46.0% inter: 27.1% 17.1% 4.5%
x264 [info]: i16 v,h,dc,p: 41% 10% 9% 39%
x264 [info]: i8 v,h,dc,ddl,ddr,vr,hd,vl,hu: 9% 8% 8% 10% 14% 13% 13% 12% 14%
x264 [info]: i4 v,h,dc,ddl,ddr,vr,hd,vl,hu: 12% 7% 5% 9% 15% 15% 13% 12% 13%
x264 [info]: i8c dc,h,v,p: 34% 27% 20% 19%
x264 [info]: Weighted P-Frames: Y:9.5% UV:4.9%
x264 [info]: ref P L0: 43.9% 10.1% 20.5% 7.5% 6.3% 4.4% 4.2% 2.6% 0.4% 0.0%
x264 [info]: ref B L0: 80.4% 10.5% 4.2% 2.1% 1.5% 0.9% 0.4%
x264 [info]: ref B L1: 94.5% 5.5%
x264 [info]: kb/s:2161.26
x264 [total]: encoded 145373 frames, 1.34 fps, 2161.26 kb/s

Скриншоты

Яндекс.Метрика
Рейтинг@Mail.ru